Елена и мужчины / Elena et les hommes (1956) BDRip 1080p от ExKinoRay | P

 
Автор Сообщение

sergej644 ®

Пол:

Стаж: 4 года 11 месяцев

Сообщений: 6035

Откуда: Soviet Union



Награды: Нет

Торрент-статистика

Создавать темы 02-Дек-2014 09:27

[Цитировать]

Информация о фильме
Название: Елена и мужчины
Оригинальное название: Elena et les hommes
Год выхода: 1956
Жанр: драма, мелодрама, комедия
Режиссер: Жан Ренуар / Jean Renoir
В ролях: Ингрид Бергман, Жан Маре, Мел Феррер, Жан Ришар, Жюльетт Греко, Пьер Бертен, Дора Долл, Фредерик Дюваллес, Рено Мэри, Жак Морель
О фильме:
Париж, начало XX века. Очаровательная польская княгиня Елена Сокоровская держит в своих руках судьбы Европы. Один из наиболее влиятельных французских генералов влюблен в неё и прожженные политики надеются, что смогут с её помощью заставить генерала совершить государственный переворот...

Страна: Франция, Италия
Продолжительность: 01:38:23
Перевод: Профессиональный (многоголосый, закадровый)
Файл
Контейнер: MKV
Качество: BDRip 1080p
Видео: 9300 Кбит/с, 1440x1080
Аудио №1: Русский (AC3, 2 ch, 192 Кбит/с) - Профессиональный многоголосый (Film Prestige)
Аудио №2: Русский (AC3, 2 ch, 192 Кбит/с) - Профессиональный многоголосый (SomeWax)
Аудио №3: Русский (AC3, 2 ch, 192 Кбит/с) - Профессиональный многоголосый (ГТРК Культура)
Аудио №4: Французский (DTS, 2 ch, 1510 Кбит/с)
Субтитры: Russian x2 (FP, SW), English

MI

Формат : Matroska
Размер файла : 7,83 Гбайт
Продолжительность : 1 ч. 38 м.
Общий поток : 11,4 Мбит/сек
Название фильма : Elena.i.muzhchiny.1956.x264.BDRip.(1080p).ExKinoRay
Дата кодирования : UTC 2014-12-01 09:56:48
Программа кодирования : mkvmerge v4.0.0 ('The Stars were mine') сборка от Jun 6 2010 16:18:42
Библиотека кодирования : libebml v1.0.0 + libmatroska v1.0.0
Видео
Идентификатор : 1
Формат : AVC
Формат/Информация : Advanced Video Codec
Профиль формата : High@L4.1
Параметр CABAC формата : Да
Параметр ReFrames формата : 4 кадра
Идентификатор кодека : V_MPEG4/ISO/AVC
Продолжительность : 1 ч. 38 м.
Битрейт : 9300 Кбит/сек
Ширина : 1440 пикс.
Высота : 1080 пикс.
Соотношение сторон : 4:3
Частота кадров : 24,000 кадр/сек
Цветовое пространство : YUV
Подвыборка цветности : 4:2:0
Битовая глубина : 8 бит
Тип развёртки : Прогрессивная
Бит/(Пиксели*Кадры) : 0.249
Размер потока : 6,24 Гбайт (80%)
Заголовок : Rip by Enigma-Vladislav71
Библиотека кодирования : x264 core 125 r2208 d9d2288
Настройки программы : cabac=1 / ref=4 / deblock=1:-3:-3 / analyse=0x3:0x133 / me=umh / subme=11 / psy=1 / psy_rd=1.00:0.00 / mixed_ref=1 / me_range=32 / chroma_me=1 / trellis=2 / 8x8dct=1 / cqm=0 / deadzone=21,11 / fast_pskip=0 / chroma_qp_offset=-2 / threads=3 / lookahead_threads=1 / sliced_threads=0 / nr=0 / decimate=0 / interlaced=0 / bluray_compat=0 / constrained_intra=0 / bframes=8 / b_pyramid=2 / b_adapt=2 / b_bias=0 / direct=3 / weightb=1 / open_gop=0 / weightp=2 / keyint=240 / keyint_min=23 / scenecut=40 / intra_refresh=0 / rc=2pass / mbtree=0 / bitrate=9300 / ratetol=1.0 / qcomp=0.60 / qpmin=10 / qpmax=51 / qpstep=4 / cplxblur=20.0 / qblur=0.5 / ip_ratio=1.40 / pb_ratio=1.30 / aq=1:1.00
Язык : English
Аудио #1
Идентификатор : 2
Формат : AC-3
Формат/Информация : Audio Coding 3
Расширение режима : CM (complete main)
Идентификатор кодека : A_AC3
Продолжительность : 1 ч. 38 м.
Вид битрейта : Постоянный
Битрейт : 192 Кбит/сек
Каналы : 2 канала
Расположение каналов : Front: L R
Частота : 48,0 КГц
Битовая глубина : 16 бит
Метод сжатия : С потерями
Размер потока : 135 Мбайт (2%)
Заголовок : Профессиональный многоголосый (Film Prestige)
Язык : Russian
Аудио #2
Идентификатор : 3
Формат : AC-3
Формат/Информация : Audio Coding 3
Расширение режима : CM (complete main)
Идентификатор кодека : A_AC3
Продолжительность : 1 ч. 38 м.
Вид битрейта : Постоянный
Битрейт : 192 Кбит/сек
Каналы : 2 канала
Расположение каналов : Front: L R
Частота : 48,0 КГц
Битовая глубина : 16 бит
Метод сжатия : С потерями
Размер потока : 135 Мбайт (2%)
Заголовок : Профессиональный многоголосый (SomeWax)
Язык : Russian
Аудио #3
Идентификатор : 4
Формат : AC-3
Формат/Информация : Audio Coding 3
Расширение режима : CM (complete main)
Идентификатор кодека : A_AC3
Продолжительность : 1 ч. 38 м.
Вид битрейта : Постоянный
Битрейт : 192 Кбит/сек
Каналы : 2 канала
Расположение каналов : Front: L R
Частота : 48,0 КГц
Битовая глубина : 16 бит
Метод сжатия : С потерями
Размер потока : 135 Мбайт (2%)
Заголовок : Профессиональный многоголосый (ГТРК Культура)
Язык : Russian
Аудио #4
Идентификатор : 5
Формат : DTS
Формат/Информация : Digital Theater Systems
Идентификатор кодека : A_DTS
Продолжительность : 1 ч. 38 м.
Вид битрейта : Постоянный
Битрейт : 1510 Кбит/сек
Каналы : 2 канала
Расположение каналов : Front: L R
Частота : 48,0 КГц
Битовая глубина : 16 бит
Метод сжатия : С потерями
Размер потока : 1,04 Гбайт (13%)
Заголовок : Французский
Язык : French
Текст #1
Идентификатор : 6
Формат : UTF-8
Идентификатор кодека : S_TEXT/UTF8
Идентификатор кодека/Информация : UTF-8 Plain Text
Язык : Russian
Текст #2
Идентификатор : 7
Формат : UTF-8
Идентификатор кодека : S_TEXT/UTF8
Идентификатор кодека/Информация : UTF-8 Plain Text
Язык : Russian
Текст #3
Идентификатор : 8
Формат : UTF-8
Идентификатор кодека : S_TEXT/UTF8
Идентификатор кодека/Информация : UTF-8 Plain Text
Язык : English
Меню
00:00:00.000 : en:00:00:00.000
00:08:48.958 : en:00:08:48.958
00:17:43.917 : en:00:17:43.917
00:24:57.417 : en:00:24:57.417
00:32:37.458 : en:00:32:37.458
00:44:59.750 : en:00:44:59.750
00:54:40.958 : en:00:54:40.958
01:01:01.167 : en:01:01:01.167
01:07:00.583 : en:01:07:00.583
01:13:54.125 : en:01:13:54.125
01:23:01.000 : en:01:23:01.000
01:31:26.000 : en:01:31:26.000

Скриншоты


Релиз от: Авторы релиза:
[Профиль] [ЛС]
Показать сообщения:    

Текущее время: Сегодня 07:05

Часовой пояс: GMT



Вы не можете начинать темы
Вы не можете отвечать на сообщения
Вы не можете редактировать свои сообщения
Вы не можете удалять свои сообщения
Вы не можете голосовать в опросах
Вы не можете прикреплять файлы к сообщениям
Вы не можете скачивать файлы