(Chanson) Елена Ваенга - New - 2016 [FLAC, image +.cue, lossless]

 
Автор Сообщение

sergej644 ®

Пол:

Стаж: 4 года 11 месяцев

Сообщений: 6046

Откуда: Soviet Union



Награды: Нет

Торрент-статистика

Создавать темы 09-Сен-2016 09:27

[Цитировать]

-Елена Ваенга - New--
Год издания: 2016
Страна: Russia
Жанр: Chanson
Продолжительность: 00:59:08-Лейбл издания: United music group
Страна-выпуска диска: Russia
Номер по каталогу: UMG15 CD-5066-Формат: FLAC
Битрейт аудио: Lossless
Тип рипа: image +.cue
Наличие сканов в содержимом раздачи: да
-

Трэклист


01.Королева(3:38)
02.Леди Ди(3:55)
03.New(5:17)
04.Мишина песня(3:54)
05.Нева (дуэт с Интарсом Бусулисом)(5:08)
06.Невеста(3:49)
07.Просто так(2:54)
08.Есенин(5:06)
09.Гравитация (дуэт с Интарсом Бусулисом)(4:20)
10.Намасте(4:03)
11.Веночек(4:24)
12.Колыбельная(2:48)
13.Батальное полотно(3:16)
14.Умка(3:49)
15.А кто двару (дуэт с Алёной Петровской)(2:47)
-

Лог создания рипа

Exact Audio Copy V1.0 beta 4 from 7. December 2014
Отчёт EAC об извлечении, выполненном 26. декабря 2015, 19:59
Елена Ваенга / New
Дисковод: PIONEER BD-RW   BDR-207   Adapter: 1  ID: 0
Режим чтения                 : Достоверность
Использование точного потока : Да
Отключение кэша аудио        : Да
Использование указателей C2  : Нет
Коррекция смещения при чтении                     : 667
Способность читать области Lead-in и Lead-out     : Нет
Заполнение пропущенных сэмплов тишиной            : Да
Удаление блоков с тишиной в начале и конце        : Нет
При вычислениях CRC использовались нулевые сэмплы : Да
Интерфейс                                         : Встроенный Win32-интерфейс для Win NT/2000
Выходной формат : Внутренние WAV-операции
Формат сэмплов  : 44.100 Гц; 16 бит; стерео
TOC извлечённого CD
     Трек |   Старт  | Длительность | Начальный сектор | Конечный сектор
    ---------------------------------------------------------------------
       1  |  0:00.00 |    3:38.25   |           0      |      16374
       2  |  3:38.25 |    3:54.46   |       16375      |      33970
       3  |  7:32.71 |    5:17.15   |       33971      |      57760
       4  | 12:50.11 |    3:54.15   |       57761      |      75325
       5  | 16:44.26 |    5:07.46   |       75326      |      98396
       6  | 21:51.72 |    3:48.61   |       98397      |     115557
       7  | 25:40.58 |    2:54.17   |      115558      |     128624
       8  | 28:35.00 |    5:05.51   |      128625      |     151550
       9  | 33:40.51 |    4:19.72   |      151551      |     171047
      10  | 38:00.48 |    4:03.13   |      171048      |     189285
      11  | 42:03.61 |    4:24.09   |      189286      |     209094
      12  | 46:27.70 |    2:47.71   |      209095      |     221690
      13  | 49:15.66 |    3:16.13   |      221691      |     236403
      14  | 52:32.04 |    3:48.60   |      236404      |     253563
      15  | 56:20.64 |    2:46.53   |      253564      |     266066
Характеристики диапазона извлечения и сообщения об ошибках
Выбранный диапазон
     Имя файла J:\Диски\Елена Ваенга - New\Елена Ваенга - New.wav
     Пиковый уровень 98.0 %
     Скорость извлечения 7.2 X
     Качество диапазона 100.0 %
     CRC теста B45BF049
     CRC копии B45BF049
     Копирование... OK
Ошибок не произошло
AccurateRip: сводка
Трек  1  отсутствует в базе данных
Трек  2  отсутствует в базе данных
Трек  3  отсутствует в базе данных
Трек  4  отсутствует в базе данных
Трек  5  отсутствует в базе данных
Трек  6  отсутствует в базе данных
Трек  7  отсутствует в базе данных
Трек  8  отсутствует в базе данных
Трек  9  отсутствует в базе данных
Трек 10  отсутствует в базе данных
Трек 11  отсутствует в базе данных
Трек 12  отсутствует в базе данных
Трек 13  отсутствует в базе данных
Трек 14  отсутствует в базе данных
Трек 15  отсутствует в базе данных
Ни одного трека нет в базе AccurateRip
Конец отчёта
---- CUETools DB Plugin V2.1.4
[CTDB TOCID: DF1tQdJcGWlzqSGakHqNiypbsBQ-] disk not present in database
Submit result: DF1tQdJcGWlzqSGakHqNiypbsBQ- has been uploaded

Индексная карта (non-compilant .cue)

REM GENRE Chanson
REM DATE 2015
REM DISCID BE0DDB0F
REM COMMENT "ExactAudioCopy v1.0b4"
PERFORMER "Елена Ваенга"
TITLE "New"
FILE "Елена Ваенга - New.flac" WAVE
  TRACK 01 AUDIO
    TITLE "Королева"
    PERFORMER "Елена Ваенга"
    INDEX 01 00:00:00
  TRACK 02 AUDIO
    TITLE "Леди Ди"
    PERFORMER "Елена Ваенга"
    INDEX 00 03:36:25
    INDEX 01 03:38:25
  TRACK 03 AUDIO
    TITLE "New"
    PERFORMER "Елена Ваенга"
    INDEX 00 07:30:71
    INDEX 01 07:32:71
  TRACK 04 AUDIO
    TITLE "Мишина песня"
    PERFORMER "Елена Ваенга"
    INDEX 00 12:48:11
    INDEX 01 12:50:11
  TRACK 05 AUDIO
    TITLE "Нева (дуэт с Интарсом Бусулисом)"
    PERFORMER "Елена Ваенга"
    INDEX 00 16:42:26
    INDEX 01 16:44:26
  TRACK 06 AUDIO
    TITLE "Невеста"
    PERFORMER "Елена Ваенга"
    INDEX 00 21:49:72
    INDEX 01 21:51:72
  TRACK 07 AUDIO
    TITLE "Просто так"
    PERFORMER "Елена Ваенга"
    INDEX 00 25:38:58
    INDEX 01 25:40:58
  TRACK 08 AUDIO
    TITLE "Есенин"
    PERFORMER "Елена Ваенга"
    INDEX 00 28:33:00
    INDEX 01 28:35:00
  TRACK 09 AUDIO
    TITLE "Гравитация (дуэт с Интарсом Бусулисом)"
    PERFORMER "Елена Ваенга"
    INDEX 00 33:38:51
    INDEX 01 33:40:51
  TRACK 10 AUDIO
    TITLE "Намасте"
    PERFORMER "Елена Ваенга"
    INDEX 00 37:58:48
    INDEX 01 38:00:48
  TRACK 11 AUDIO
    TITLE "Веночек"
    PERFORMER "Елена Ваенга"
    INDEX 00 42:01:61
    INDEX 01 42:03:61
  TRACK 12 AUDIO
    TITLE "Колыбельная"
    PERFORMER "Елена Ваенга"
    INDEX 00 46:25:70
    INDEX 01 46:27:70
  TRACK 13 AUDIO
    TITLE "Батальное полотно"
    PERFORMER "Елена Ваенга"
    INDEX 00 49:13:66
    INDEX 01 49:15:66
  TRACK 14 AUDIO
    TITLE "Умка"
    PERFORMER "Елена Ваенга"
    INDEX 00 52:30:04
    INDEX 01 52:32:04
  TRACK 15 AUDIO
    TITLE "А кто двару (дуэт с Алёной Петровской)"
    PERFORMER "Елена Ваенга"
    INDEX 00 56:18:64
    INDEX 01 56:20:64

Audiochecker log

AUDIOCHECKER v2.0 beta (build 457) - by Dester - opdester@freemail.hu
~~~~~~~~~~~~~~~~~~~~~~~~~~~~~~~~~~
Started at: пятница, 09. 09. 2016. - 12:05.19
1 file found
1 -===- D:\Torrent Files\Елена Ваенга - New {Flack}(2015)\Елена Ваенга - New.flac
  Extracted successfully
  Conclusion: this track is CDDA with probability 100%
  Tempfile successfully deleted.
Finished at: пятница, 09. 09. 2016. - 12:07.51 (operation time: 0:02.32)
--
[Профиль] [ЛС]
Показать сообщения:    

Текущее время: Сегодня 19:30

Часовой пояс: GMT



Вы не можете начинать темы
Вы не можете отвечать на сообщения
Вы не можете редактировать свои сообщения
Вы не можете удалять свои сообщения
Вы не можете голосовать в опросах
Вы не можете прикреплять файлы к сообщениям
Вы не можете скачивать файлы