(Шансон) Елена Ваенга - Серия «SUPER HITS COLLECTION. 20 лучших песен» - 2013, FLAC (image+.cue), lossless

 
Автор Сообщение

sergej644 ®

Пол:

Стаж: 4 года 11 месяцев

Сообщений: 6046

Откуда: Soviet Union



Награды: Нет

Торрент-статистика

Создавать темы 14-Июл-2015 04:20

[Цитировать]

Елена Ваенга / Серия «SUPER HITS COLLECTION. 20 лучших песен»
Жанр: Шансон
Страна-производитель диска: Россия
Год издания: 2013
Издатель (лейбл): Классик Компани
Номер по каталогу: 13-202
Страна: Россия
Аудиокодек: FLAC (*.flac)
Тип рипа: image+.cue
Битрейт аудио: lossless
Продолжительность: 01:12:48
Источник (релизер): maichka
Наличие сканов в содержимом раздачи: да
Треклист:
01. Курю
02. Шопен
03. Абсент
04. Аэропорт
05. Радуга
06. Оловянное сердце
07. Золотая рыбка
08. Клавиши
09. Ягода
10. Мостики
11. По моей щеке
12. Номерок
13. Сложная песня
14. Гуцулочка
15. Белая птица
16. Принцесса
17. Тайга
18. Где была
19. У меня на губах
20. Желаю

Лог создания рипа

Exact Audio Copy V1.0 beta 3 from 29. August 2011
Отчёт EAC об извлечении, выполненном 7. октября 2013, 21:35
Елена Ваенга  / Super Hits Collection
Дисковод: Optiarc DVD RW AD-5280S   Adapter: 2  ID: 1
Режим чтения                 : Достоверность
Использование точного потока : Да
Отключение кэша аудио        : Да
Использование указателей C2  : Нет
Коррекция смещения при чтении                     : 48
Способность читать области Lead-in и Lead-out     : Нет
Заполнение пропущенных сэмплов тишиной            : Да
Удаление блоков с тишиной в начале и конце        : Нет
При вычислениях CRC использовались нулевые сэмплы : Да
Интерфейс                                         : Встроенный Win32-интерфейс для Win NT/2000
Выходной формат          : Пользовательский кодировщик
Выбранный битрейт        : 896 kBit/s
Качество                 : Высокий
Добавление ID3-тега      : Нет
Утилита сжатия           : C:\Program Files\EACPortable\App\EAC\FLAC\flac.exe
Дополнительные параметры : -6 -V -T "ARTIST=%artist%" -T "TITLE=%title%" -T "ALBUM=%albumtitle%" -T "DATE=%year%" -T "TRACKNUMBER=%tracknr%" -T "GENRE=%genre%" -T "COMMENT=%comment%" %hascover%--picture="%coverfile%"%hascover% %source% -o %dest%
TOC извлечённого CD
     Трек |   Старт  | Длительность | Начальный сектор | Конечный сектор
    ---------------------------------------------------------------------
       1  |  0:00.00 |    5:09.64   |           0      |      23238
       2  |  5:09.64 |    3:58.13   |       23239      |      41101
       3  |  9:08.02 |    3:21.31   |       41102      |      56207
       4  | 12:29.33 |    3:15.59   |       56208      |      70891
       5  | 15:45.17 |    3:27.35   |       70892      |      86451
       6  | 19:12.52 |    3:28.47   |       86452      |     102098
       7  | 22:41.24 |    2:51.54   |      102099      |     114977
       8  | 25:33.03 |    3:49.66   |      114978      |     132218
       9  | 29:22.69 |    3:30.33   |      132219      |     148001
      10  | 32:53.27 |    3:25.03   |      148002      |     163379
      11  | 36:18.30 |    3:28.51   |      163380      |     179030
      12  | 39:47.06 |    3:15.66   |      179031      |     193721
      13  | 43:02.72 |    4:30.03   |      193722      |     213974
      14  | 47:33.00 |    3:08.42   |      213975      |     228116
      15  | 50:41.42 |    3:59.37   |      228117      |     246078
      16  | 54:41.04 |    4:14.02   |      246079      |     265130
      17  | 58:55.06 |    5:08.33   |      265131      |     288263
      18  | 64:03.39 |    2:53.37   |      288264      |     301275
      19  | 66:57.01 |    3:16.08   |      301276      |     315983
      20  | 70:13.09 |    2:34.72   |      315984      |     327605
Характеристики диапазона извлечения и сообщения об ошибках
Выбранный диапазон
     Имя файла G:\Дискографии (Lossless)\Елена Ваенга  - Super Hits Collection.wav
     Пиковый уровень 97.0 %
     Скорость извлечения 4.4 X
     Качество диапазона 100.0 %
     CRC теста 739A5521
     CRC копии 739A5521
     Копирование... OK
Ошибок не произошло
Конец отчёта

Лог проверки качества

AUDIOCHECKER v2.0 beta (build 457) - by Dester - opdester@freemail.hu
~~~~~~~~~~~~~~~~~~~~~~~~~~~~~~~~~~
-=== НЕ РЕДАКТИРУЙТЕ ЭТОТ ФАЙЛ! ===-
Путь: ...\Елена Ваенга - Super Hits Collection (2013)
1 -=- Елена Ваенга  - Super Hits Collection.flac -=- CDDA (100%)
73258916

Скриншот спектра частот

[Профиль] [ЛС]

Создавать темы 13-Авг-2015 11:04 (спустя 30 дней)

Топик был перенесен из форума Шансон и авторская песня в форум Сhanson
sergej644
 
Кто просматривает тему:

Показать сообщения:    

Текущее время: Сегодня 05:20

Часовой пояс: GMT



Вы не можете начинать темы
Вы не можете отвечать на сообщения
Вы не можете редактировать свои сообщения
Вы не можете удалять свои сообщения
Вы не можете голосовать в опросах
Вы не можете прикреплять файлы к сообщениям
Вы не можете скачивать файлы