(Шансон) Елена Ваенга - Лена - 2012, FLAC (image+.cue), lossless

 
Автор Сообщение

sergej644 ®

Пол:

Стаж: 4 года 11 месяцев

Сообщений: 6035

Откуда: Soviet Union



Награды: Нет

Торрент-статистика

Создавать темы 06-Июл-2015 00:44

[Цитировать]

Елена Ваенга • Лена Страна-производитель диска:
Жанр: Шансон
Год издания: 2012
Издатель (лейбл): Квадро-Диск
Номер по каталогу: KTL12 - 787
Аудиокодек: FLAC (*.flac)
Тип рипа: image+.cue
Битрейт аудио: lossless
Продолжительность: 54:21
Источник (релизер): мой рип
Наличие сканов в содержимом раздачи: да-
[02:53] 01. Где была
[04:13] 02. Принцесса
[04:00] 03. Лодочка
[04:30] 04. Сложная песня
[04:35] 05. Больно
[03:28] 06. По моей щеке
[04:05] 07. Ехал ко мне друг
[03:24] 08. Лена
[03:15] 09. Номерок
[03:52] 10. Ре, ля
[05:03] 11. Виски
[03:53] 12. Другу
[03:43] 13. Ленточка
[03:21] 14. Мамочка

-
-

Лог создания рипа

Exact Audio Copy V1.0 beta 3 from 29. August 2011
Отчёт EAC об извлечении, выполненном 13. сентября 2012, 16:03
Елена Ваенга / Лена
Дисковод: HL-DT-STDVD-RAM GH22NP21 Adapter: 0 ID: 0
Режим чтения : ДостоверностьИспользование точного потока : ДаОтключение кэша аудио : ДаИспользование указателей C2 : Нет
Коррекция смещения при чтении : 102Способность читать области Lead-in и Lead-out : НетЗаполнение пропущенных сэмплов тишиной : ДаУдаление блоков с тишиной в начале и конце : НетПри вычислениях CRC использовались нулевые сэмплы : ДаИнтерфейс : Встроенный Win32-интерфейс для Win NT/2000
Выходной формат : Пользовательский кодировщикВыбранный битрейт : 1024 kBit/sКачество : ВысокийДобавление ID3-тега : НетУтилита сжатия : C:\Program Files\Exact Audio Copy\FLAC\FLAC.EXEДополнительные параметры : -8 -V -T "ARTIST=%artist%" -T "TITLE=%title%" -T "ALBUM=%albumtitle%" -T "DATE=%year%" -T "TRACKNUMBER=%tracknr%" -T "GENRE=%genre%" -T "COMMENT=%comment%" %hascover%--picture="%coverfile%"%hascover% %source% -o %dest%
TOC извлечённого CD
Трек | Старт | Длительность | Начальный сектор | Конечный сектор --------------------------------------------------------------------- 1 | 0:00.00 | 2:53.14 | 0 | 12988 2 | 2:53.14 | 4:13.51 | 12989 | 32014 3 | 7:06.65 | 4:00.17 | 32015 | 50031 4 | 11:07.07 | 4:30.15 | 50032 | 70296 5 | 15:37.22 | 4:35.28 | 70297 | 90949 6 | 20:12.50 | 3:28.57 | 90950 | 106606 7 | 23:41.32 | 4:05.07 | 106607 | 124988 8 | 27:46.39 | 3:24.64 | 124989 | 140352 9 | 31:11.28 | 3:15.30 | 140353 | 155007 10 | 34:26.58 | 3:52.60 | 155008 | 172467 11 | 38:19.43 | 5:03.25 | 172468 | 195217 12 | 43:22.68 | 3:53.06 | 195218 | 212698 13 | 47:15.74 | 3:43.52 | 212699 | 229475 14 | 50:59.51 | 3:21.53 | 229476 | 244603
Характеристики диапазона извлечения и сообщения об ошибках
Выбранный диапазон
Имя файла D:\Раздачи на torrents.ru\Елена Ваенга - Лена,2012(lossless)\Елена Ваенга - Лена.wav
Пиковый уровень 99.0 % Скорость извлечения 2.7 X Качество диапазона 100.0 % CRC теста A2EF6CAF CRC копии A2EF6CAF Копирование... OK
Ошибок не произошло
AccurateRip: сводка
Трек 1 отсутствует в базе данныхТрек 2 отсутствует в базе данныхТрек 3 отсутствует в базе данныхТрек 4 отсутствует в базе данныхТрек 5 отсутствует в базе данныхТрек 6 отсутствует в базе данныхТрек 7 отсутствует в базе данныхТрек 8 отсутствует в базе данныхТрек 9 отсутствует в базе данныхТрек 10 отсутствует в базе данныхТрек 11 отсутствует в базе данныхТрек 12 отсутствует в базе данныхТрек 13 отсутствует в базе данныхТрек 14 отсутствует в базе данных
Ни одного трека нет в базе AccurateRip
Конец отчёта
==== Контрольная сумма отчёта F40E813C4F6CDF36412E8434F69B252A83F3DC3A796A97555CCA714EC7319C06 ====

Содержание индексной карты (.CUE)

REM GENRE ШансонREM DATE 2012REM DISCID C10CBD0EREM COMMENT "ExactAudioCopy v1.0b3"PERFORMER "Елена Ваенга"TITLE "Лена"FILE "Елена Ваенга - Лена.flac" WAVE TRACK 01 AUDIO TITLE "Где была" PERFORMER "Елена Ваенга" INDEX 01 00:00:00 TRACK 02 AUDIO TITLE "Принцесса" PERFORMER "Елена Ваенга" INDEX 01 02:53:14 TRACK 03 AUDIO TITLE "Лодочка" PERFORMER "Елена Ваенга" INDEX 01 07:06:65 TRACK 04 AUDIO TITLE "Сложная песня" PERFORMER "Елена Ваенга" INDEX 01 11:07:07 TRACK 05 AUDIO TITLE "Больно" PERFORMER "Елена Ваенга" INDEX 01 15:37:22 TRACK 06 AUDIO TITLE "По моей щеке" PERFORMER "Елена Ваенга" INDEX 01 20:12:50 TRACK 07 AUDIO TITLE "Ехал ко мне друг" PERFORMER "Елена Ваенга" INDEX 01 23:41:32 TRACK 08 AUDIO TITLE "Лена" PERFORMER "Елена Ваенга" INDEX 01 27:46:39 TRACK 09 AUDIO TITLE "Номерок" PERFORMER "Елена Ваенга" INDEX 01 31:11:28 TRACK 10 AUDIO TITLE "Ре, лф" PERFORMER "Елена Ваенга" INDEX 01 34:26:58 TRACK 11 AUDIO TITLE "Втски" PERFORMER "Елена Ваенга" INDEX 01 38:19:43 TRACK 12 AUDIO TITLE "Другу" PERFORMER "Елена Ваенга" INDEX 01 43:22:68 TRACK 13 AUDIO TITLE "Ленточка" PERFORMER "Елена Ваенга" INDEX 01 47:15:74 TRACK 14 AUDIO TITLE "Мамочка" PERFORMER "Елена Ваенга" INDEX 01 50:59:51

Об исполнителе (группе)

www.vaenga.ru
[Профиль] [ЛС]

Создавать темы 13-Авг-2015 11:04 (спустя 1 месяц 7 дней)

Топик был перенесен из форума Шансон и авторская песня в форум Сhanson
sergej644
 
Кто просматривает тему:

Показать сообщения:    

Текущее время: Сегодня 05:00

Часовой пояс: GMT



Вы не можете начинать темы
Вы не можете отвечать на сообщения
Вы не можете редактировать свои сообщения
Вы не можете удалять свои сообщения
Вы не можете голосовать в опросах
Вы не можете прикреплять файлы к сообщениям
Вы не можете скачивать файлы