Ежик и яблоко / Kirpi balası və alma (Хафиз Акбаров / Hafiz Akbarov) [1977, СССР, Рисованный мультфильм, WEBRip]

 
Автор Сообщение

TorrentFilm ®

Пол:

Стаж: 2 года

Сообщений: 7741



Награды: Нет

Торрент-статистика

Создавать темы 30-Дек-2015 00:12

[Цитировать]

Ежик и яблоко / Kirpi balası və alma
Страна: СССР
Жанр: Рисованный мультфильм
Продолжительность: 00:06:59
Год выпуска: 1977
Русские субтитры: нет
Режиссёр: Хафиз Акбаров / Hafiz Akbarov
Описание: О бережном отношении к природе
Доп. информация: «Азербайджанфильм»
Раздача группы:
Качество: WEBRip
Формат: AVI
Видео: 704x528 (1.33:1), 25 fps, XviD build 50 ~994 kbps avg, 0.11 bit/pixel
Аудио: 44.100 kHz, MPEG Layer 3, 2 ch, ~192.00 kbps avg
Субтитры: нет

Подробные технические данные

Format : AVIFormat/Info : Audio Video InterleaveFile size : 60.0 MiBDuration : 6mn 59sOverall bit rate : 1 199 KbpsWriting application : MEncoder SVN-r30881(20100311-gcc4.3.3)Writing library : MPlayer
VideoID : 0Format : MPEG-4 VisualFormat profile : Advanced Simple@L5Format settings, BVOP : 2Format settings, QPel : NoFormat settings, GMC : No warppointsFormat settings, Matrix : Default (H.263)Codec ID : XVIDCodec ID/Hint : XviDDuration : 6mn 59sBit rate : 995 KbpsWidth : 704 pixelsHeight : 528 pixelsDisplay aspect ratio : 16:9Original display aspect ratio : 4:3Frame rate : 25.000 fpsColor space : YUVChroma subsampling : 4:2:0Bit depth : 8 bitsScan type : ProgressiveCompression mode : LossyBits/(Pixel*Frame) : 0.107Stream size : 49.7 MiB (83%)Writing library : XviD 1.2.1 (UTC 2008-12-04)
AudioID : 1Format : MPEG AudioFormat version : Version 1Format profile : Layer 3Mode : Joint stereoMode extension : MS StereoCodec ID : 55Codec ID/Hint : MP3Duration : 6mn 59sBit rate mode : ConstantBit rate : 192 KbpsChannel(s) : 2 channelsSampling rate : 44.1 KHzCompression mode : LossyDelay relative to video : 80msStream size : 9.60 MiB (16%)Alignment : Aligned on interleavesInterleave, duration : 26 ms (0.65 video frame)Interleave, preload duration : 522 msWriting library : LAME3.98

Скриншоты

[Профиль] [ЛС]
Кто просматривает тему:

Показать сообщения:    

Текущее время: Сегодня 04:47

Часовой пояс: GMT



Вы не можете начинать темы
Вы не можете отвечать на сообщения
Вы не можете редактировать свои сообщения
Вы не можете удалять свои сообщения
Вы не можете голосовать в опросах
Вы не можете прикреплять файлы к сообщениям
Вы не можете скачивать файлы