Единичка (2015) DVD9 | Лицензия

 
Автор Сообщение

достали все ®

Пол:

Стаж: 1 год 8 месяцев

Сообщений: 6610



Награды: 12 (Подробнее)

Mega Seeder 4 (Количество: 1) Top Releaser 3 (Количество: 1) Mega Seeder 5 (Количество: 1)
Торрент-статистика

Создавать темы 28-Июн-2015 07:48

[Цитировать]

Информация о фильме
Название: Единичка
Год выхода: 2015
Жанр: военный, драма
Режиссер: Кирилл Белевич
В ролях: Андрей Мерзликин, Илья Коробко, Анна Прус, Арина Борисова, Александр Вершинин, Михаил Евланов, Микаэл Джанибекян, Сергей Габриэлян, Добрыня Белевич-Оболенский, Якуб Здруйковский
О фильме:
Август 1944-го. Советские войска продолжают наступление в Восточной Польше. Подразделение старшего лейтенанта Егорова получает задание — удержать мост, через который планируется переправа частей Советской Армии. Прибыв на позицию, бойцы обнаруживают разрушенный монастырь, а в нем — группу глухих сирот с воспитательницей Евой.
Утратив веру, она нашла смысл жизни в спасении немощных и беззащитных детей. Лейтенант Егоров оказывается перед сложным выбором — выполняя приказ командования, он будет вынужден поставить под угрозу жизнь маленьких поляков. Артиллеристы изо всех сил стараются не допустить смерти детей…- -Страна: Россия
Студия: Марс Медиа Энтертейнмент
Продолжительность: 105 мин. / 01:45
Перевод: не требуется-Файл
Кодек: MPEG2
Качество: DVD9 "CP Дистрибуция"
Видео: PAL 16:9 (720x576@1024x576) VBR 6976 Kbps, 25.000 fps
Аудио: Dolby AC3, 6 ch, 48.0 KHz, 448 Кbps
Субтитры: отсутствуют-

MediaInfo

Общее
Полное имя : E:Ediniсhka.2015.DVD9VIDEO_TSVTS_04_1.VOB
Формат : MPEG-PS
Размер файла : 1024 Мбайт
Продолжительность : 18 м.
Режим общего битрейта : Переменный
Общий поток : 7575 Кбит/сек
Видео
Идентификатор : 224 (0xE0)
Формат : MPEG Video
Версия формата : Version 2
Профиль формата : Main@Main
Параметр BVOP формата : Да
Параметр матрицы формата : По умолчанию
Параметр GOP формата : M=3, N=12
Продолжительность : 18 м.
Вид битрейта : Переменный
Битрейт : 6976 Кбит/сек
Максимальный битрейт : 9000 Кбит/сек
Ширина : 720 пикселей
Высота : 576 пикселей
Соотношение сторон : 16:9
Частота кадров : 25,000 кадров/сек
Стандарт вещания : PAL
Цветовое пространство : YUV
Субдискретизация насыщенности : 4:2:0
Битовая глубина : 8 бит
Тип развёртки : Прогрессивная
Метод сжатия : С потерями
Бит/(Пиксели*Кадры) : 0.673
Временной код первого кадра : 00:00:00:00
Оригинал временного кода : Group of pictures header
GOP, открыто/закрыто : Открыто
GOP, открыто/закрыто на первом кадре : Закрыто
Размер потока : 943 Мбайт (92%)
Аудио
Идентификатор : 189 (0xBD)-128 (0x80)
Формат : AC-3
Формат/Информация : Audio Coding 3
Расширение режима : CM (complete main)
Параметр Endianness формата : Big
Режим смешивания : DVD-Video
Продолжительность : 18 м.
Вид битрейта : Постоянный
Битрейт : 448 Кбит/сек
Каналы : 6 каналов
Расположение каналов : Front: L C R, Side: L R, LFE
Частота : 48,0 КГц
Метод сжатия : С потерями
Размер потока : 60,5 Мбайт (6%)
Меню

Скриншоты


[Профиль] [ЛС]

Создавать темы 06-Авг-2015 23:37 (спустя 1 месяц 8 дней)

Топик был перенесен из форума Фильмы (HD DVD, Blu-ray и BDRemux) в форум Фильмы (DVD 5/9)
sergej644
 
Показать сообщения:    

Текущее время: Сегодня 11:05

Часовой пояс: GMT



Вы не можете начинать темы
Вы не можете отвечать на сообщения
Вы не можете редактировать свои сообщения
Вы не можете удалять свои сообщения
Вы не можете голосовать в опросах
Вы не можете прикреплять файлы к сообщениям
Вы не можете скачивать файлы