Егорушка (Александр Кулямин) [2010, Россия, драма, DVD5] R5 Original Rus

 
Автор Сообщение

TorrentFilm ®

Пол:

Стаж: 2 года

Сообщений: 7741



Награды: Нет

Торрент-статистика

Создавать темы 02-Янв-2016 00:01

[Цитировать]

-Егорушка-«Не стареют душой ветераны!» -Страна: Россия
Студия: Город
Жанр: драма
Год выпуска: 2010
Дата выхода DVD: 15 ноября 2012, «Монолит»
Продолжительность: 01:31:21
Перевод: Оригинал [Лицензия]
Cубтитры: нет
Оригинальная аудиодорожка: русский-Режиссер: Александр Кулямин-В ролях: Лев Дуров, Юрий Назаров, Александр Воробьев, Александр Горшков, Вячеслав Гришечкин, Михаил Колядин, Елена Новикова, Алексей Паламарчук, Александр Печенин, Игорь Сукачев, Владимир Чуприков, Ирина Даниленко, Инора Заботина, Татьяна Косач-Брындина, Людмила Мальцева, Максим Салтыков, Владимир Федоров-Описание: Друзья ветераны Петр Ильич Ефимов и Андрей Иванович Карасев участвовали в битве за Москву в 1941-м. Они давно на пенсии, но полны боевого духа и готовы сразиться с врагами до последней капли крови. Потеряв все свои сбережения в афере строительных мошенников, они решают вспомнить молодость и наказать виновных. Их боевой товарищ — танк Т-34, которого старики ласково называют «Егорушка», теперь стоит на главной площади родного городка. Ветераны приводят в порядок силовую установку Т-34, делают запасы провианта, и однажды ночью «Егорушка» съезжает с пьедестала…-Бонусы: Смотрите на DVD- -Релиз группы: -Качество: DVD5 R5
Формат: DVD-Video
Видео кодек: MPEG2
Аудио кодек: AC3
Видео: PAL 4:3 (720x576(0.405)) MPEG Video, 25,000 кадр/сек, 4199 Кбит/сек
Аудио: Russian (Dolby AC3, 2 ch) 384 Кбит/сек, 48,0 КГц--

DVDInfo

Title: Egorushka.2010.DVD5
Size: 3.68 Gb ( 3 856 456,00 KBytes ) - DVD-5
Enabled regions: 1, 2, 3, 4, 5, 6, 7, 8
VTS_01 :
Play Length: 01:31:21
Video: PAL 4:3 (720x576) VBR
Audio:
Russian (Dolby AC3, 2 ch)
VTS_02 :
Play Length: 00:00:14+00:00:09+00:01:59+00:01:54+00:02:11+00:01:48+00:00:12
Video: PAL 16:9 (720x576) VBR, Auto Pan&Scan, Auto Letterboxed
Audio:
Russian (Dolby AC3, 6 ch)
* Menus Information *
VIDEO_TS Menu
Video:
PAL 4:3 (720x576) VBR
Letterboxed
Audio:
Not specified (Dolby AC3, 2 ch)
English Language Unit :
Title Menu
VTS_01 Menu
Video:
PAL 4:3 (720x576) VBR
Audio:
Not specified (Dolby AC3, 2 ch)
English Language Unit :
Root Menu
VTS_02 Menu
Video:
NTSC 4:3 (720x480) VBR
Auto Pan&Scan, Auto Letterboxed
English Language Unit :
Root Menu

MediaInfo

Общее
Полное имя : J:\Новинки 2012\Egorushka.2010.DVD5\VIDEO_TS\VTS_01_1.VOB
Формат : MPEG-PS
Размер файла : 1024 Мбайт
Продолжительность : 30 м.
Режим общего битрейта : Переменный
Общий поток : 4676 Кбит/сек
Видео
Идентификатор : 224 (0xE0)
Формат : MPEG Video
Версия формата : Version 2
Профиль формата : Main@Main
Параметр BVOP формата : Да
Параметр матрицы формата : Выборочная
Параметр GOP формата : Variable
Продолжительность : 30 м.
Вид битрейта : Переменный
Битрейт : 4199 Кбит/сек
Максимальный битрейт : 6000 Кбит/сек
Ширина : 720 пикселей
Высота : 576 пикселей
Соотношение сторон : 4:3
Частота кадров : 25,000 кадров/сек
Стандарт вещания : PAL
Цветовое пространство : YUV
Субдискретизация насыщенности : 4:2:0
Битовая глубина : 8 бит
Тип развёртки : Чересстрочная
Порядок развёртки : Верхнее поле первое
Метод сжатия : С потерями
Бит/(Пиксели*Кадры) : 0.405
Размер потока : 920 Мбайт (90%)
Аудио
Идентификатор : 189 (0xBD)-128 (0x80)
Формат : AC-3
Формат/Информация : Audio Coding 3
Расширение режима : CM (complete main)
Параметр Endianness формата : Big
Режим смешивания : DVD-Video
Продолжительность : 30 м.
Вид битрейта : Постоянный
Битрейт : 384 Кбит/сек
Каналы : 2 канала
Расположение каналов : Front: L R
Частота : 48,0 КГц
Битовая глубина : 16 бит
Метод сжатия : С потерями
Размер потока : 84,1 Мбайт (8%)

Скриншоты меню

Скриншоты фильма


-
-Раздача от группы:
[Профиль] [ЛС]
Кто просматривает тему:

Показать сообщения:    

Текущее время: Сегодня 04:23

Часовой пояс: GMT



Вы не можете начинать темы
Вы не можете отвечать на сообщения
Вы не можете редактировать свои сообщения
Вы не можете удалять свои сообщения
Вы не можете голосовать в опросах
Вы не можете прикреплять файлы к сообщениям
Вы не можете скачивать файлы