Ева / Eva (2018) WEB-DLRip | iTunes

 
Автор Сообщение

BOSS ®

Пол:

Стаж: 3 года 11 месяцев

Сообщений: 11883

Откуда: ODESSA



Награды: 22 (Подробнее)

Mega Releaser 4 (Количество: 1) Top Seeder 3 (Количество: 1) Mega Seeder 2 (Количество: 1)
Торрент-статистика

Создавать темы 12-Июл-2018 17:18

[Цитировать]

Ева / Eva
Страна: Франция Бельгия
Производство: Arte France, Canal+ [fr], EuropaCorp, NJJ Entertainment, SCOPE Invest, Scope Pictures, TeleScope Film Distribution
Год выпуска: 2018
Жанр: триллер
Продолжительность: 01:37:44
Режиссер: Бенуа Жако
Авторы сценария: Джеймс Хэдли Чейз, Бенуа Жако, Жиль Торан
В ролях: Изабель Юппер, Гаспар Ульель, Джулия Рой, Марк Барбе, Ришар Берри, Дидье Фламан, Эллен Мирес, Натали Шарад
Описание: Многообещающий писатель Бертран во время сильной метели оказывается под одной крышей с обольстительной и загадочной Евой. Одержимый этой роковой женщиной, он не подозревает, кто она на самом деле, и в какую опасную игру он вовлечён. Но в погоне за славой, он готов пойти на всё, чтобы получить незабываемый и шокирующий финал для, возможно, главного своего романа, героиней которого является Ева...

Перевод: Профессиональный (полное дублирование) | iTunes
Субтитры: нет-Качество: WEB-DLRip
Формат: АVI
Видео кодек: XviD
Аудио кодек: МР3
Видео: 688x288 (2.40:1), 25.000 fps, XviD build 73 ~926 kbps avg
Аудио: 48.0 kHz, MPEG Layer 3, 2 ch, ~128 kbps
Дата премьеры (мир): 17 февраля 2018
Дата премьеры (РФ): 8 марта 2018, «Экспонента»

Релиз от: порошков

Media Info

General
Формат : AVI
Формат/Информация : Audio Video Interleave
Размер файла : 744 Мбайт
Продолжительность : 1 ч. 37 м.
Общий поток : 1063 Кбит/сек
Программа кодирования : VirtualDubMod 1.5.10.3 | (build 2550/release)
Библиотека кодирования : VirtualDubMod build 2550/release
Видео
Идентификатор : 0
Формат : MPEG-4 Visual
Профиль формата : Advanced Simple@L5
Настройки формата : BVOP1 / Custom Matrix
Параметр BVOP формата : 1
Параметр QPel формата : Нет
Параметр GMC формата : Без точки перехода
Параметр матрицы формата : Выборочная
Идентификатор кодека : XVID
Идентификатор кодека/Подсказка : XviD
Продолжительность : 1 ч. 37 м.
Битрейт : 926 Кбит/сек
Ширина : 688 пикселей
Высота : 288 пикселей
Соотношение сторон : 2,40:1
Частота кадров : 25,000 кадров/сек
Цветовое пространство : YUV
Субдискретизация насыщенности : 4:2:0
Битовая глубина : 8 бит
Тип развёртки : Прогрессивная
Метод сжатия : С потерями
Бит/(Пиксели*Кадры) : 0.187
Размер потока : 647 Мбайт (87%)
Библиотека кодирования : XviD 73
Аудио
Идентификатор : 1
Формат : MPEG Audio
Версия формата : Version 1
Профиль формата : Layer 3
Идентификатор кодека : 55
Идентификатор кодека/Подсказка : MP3
Продолжительность : 1 ч. 37 м.
Вид битрейта : Постоянный
Битрейт : 128 Кбит/сек
Каналы : 2 канала
Частота : 48,0 КГц
Частота кадров : 41,667 кадра/сек (1152 SPF)
Метод сжатия : С потерями
Размер потока : 89,5 Мбайт (12%)
Выравнивание : Соединение по промежуткам
Продолжительность промежутка : 40 мс. (1,00 видеокадр)
Время предзагрузки промежутка : 504 мс.
Библиотека кодирования : LAME3.99r
Настройки программы : -m s -V 4 -q 2 -lowpass 17 -b 128

Скриншоты

[Профиль] [ЛС]
Показать сообщения:    

Текущее время: Сегодня 14:58

Часовой пояс: GMT



Вы не можете начинать темы
Вы не можете отвечать на сообщения
Вы не можете редактировать свои сообщения
Вы не можете удалять свои сообщения
Вы не можете голосовать в опросах
Вы не можете прикреплять файлы к сообщениям
Вы не можете скачивать файлы