Дядюшка Бак / Uncle Buck (1989) BDRip 720p от ivandubskoj | D, P, A

 
Автор Сообщение

Russian Mafia ®

Пол:

Стаж: 1 год 8 месяцев

Сообщений: 4246



Награды: 10 (Подробнее)

Mega Seeder 5 (Количество: 1) Mega Seeder 2 (Количество: 1) Top Releaser 3 (Количество: 1)
Торрент-статистика

Создавать темы 05-Июн-2016 04:10

[Цитировать]

Информация о фильме
Название: Дядюшка Бак / Дядя Бак
Оригинальное название: Uncle Buck
Год выхода: 1989
Жанр: Драма, комедия, семейный
Режиссёр: Джон Хьюз
В ролях: Джон Кэнди, Джин Луиза Келли, Гэби Хоффманн, Маколей Калкин, Эми Мэдиган, Элейн Бромка, Гэррет М. Браун, Лори Меткаф, Джей Андервуд, Брайан Тарантина, Майк Старр, Сюзанн Шеперд, Уильям Уиндом, Дэннис Кокрум, Джоэль Робинсон, Колин Баумгартнер, Эрик Уиппл, Марк Розенталь
О фильме:
Ленивого, добродушного дядюшку-холостяка просят позаботиться о племянниках на время семейного кризиса их родителей. К дяде Баку те обратились от отчаяния: больше оставить детей не с кем. Но немного везения, много любви, и дядя Бак сумеет всех удивить.

Выпущено: США, Hughes Entertainment, Universal Pictures
Продолжительность: 01:39:38
Перевод: Дублированный (ст. "Пифагор"), профессиональный многоголосый (СТС), 3 x авторский одноголосый (С. Визгунов, А. Михалёв, В. Дохалов)
Оригинальная аудио-дорожка: Английская
Файл
Формат: MKV
Кодек: MPEG-4 AVC
Качество: BDRip 720p [Исходник: Blu-ray EUR 1080p AVC DTS 2.0]
Видео: MPEG-4 AVC, 1280x688 (1.85:1), 8828 Кбит/с, 23.976 кадр/с, 0.418 bit/pixel
Аудио #1: Русский, DTS, 48000 Гц, 768 Кбит/с, 2 канала (Стерео) - DUB [ст. "Пифагор"]
Аудио #2: Русский, DTS, 48000 Гц, 768 Кбит/с, 2 канала (Стерео) - MVO [СТС]
Аудио #3: Русский, DTS, 48000 Гц, 768 Кбит/с, 2 канала (Стерео) - AVO [С. Визгунов]
Аудио #4: Русский, DTS, 48000 Гц, 768 Кбит/с, 2 канала (Стерео) - AVO [А. Михалёв]
Аудио #5: Русский, DTS, 48000 Гц, 768 Кбит/с, 2 канала (Стерео) - AVO [В. Дохалов]
Аудио #6: Русский, DTS, 48000 Гц, 768 Кбит/с, 2 канала (Стерео) - Оригинал
Субтитры: Английские (полные) SRT
Навигация по главам: Есть (с названием всех глав)

О релизе

Исходник: Blu-ray EUR 1080p AVC DTS 2.0
Видеоряд от: BlueBird
За предоставленные исходники аудио-дорожек - спасибо Jiraya87!
Релиз от: ivandubskoj

MediaInfo

General
Unique ID : 216540346170088323511893381584677324078 (0xA2E82757F21A51D786A84668500D452E)
Complete name : Uncle.Buck.1989.BDRip.720p.mkv
Format : Matroska
Format version : Version 4 / Version 2
File size : 9.35 GiB
Duration : 1h 39mn
Overall bit rate : 13.4 Mbps
Movie name : Дядюшка Бак / Uncle Buck (1989) BDRip (720p)
Encoded date : UTC 2016-06-04 19:39:05
Writing application : mkvmerge v7.9.0 ('Birds') 64bit
Writing library : libebml v1.3.1 + libmatroska v1.4.2
Video
ID : 1
Format : AVC
Format/Info : Advanced Video Codec
Format profile : High@L4.1
Format settings, CABAC : Yes
Format settings, ReFrames : 9 frames
Codec ID : V_MPEG4/ISO/AVC
Duration : 1h 39mn
Bit rate : 8 828 Kbps
Width : 1 280 pixels
Height : 688 pixels
Display aspect ratio : 1.85:1
Frame rate mode : Constant
Frame rate : 23.976 fps
Color space : YUV
Chroma subsampling : 4:2:0
Bit depth : 8 bits
Scan type : Progressive
Bits/(Pixel*Frame) : 0.418
Stream size : 5.96 GiB (64%)
Title : Uncle Buck (1989)
Writing library : x264 core 148 r2597 e86f3a1
Encoding settings : cabac=1 / ref=9 / deblock=1:-3:-3 / analyse=0x3:0x113 / me=umh / subme=11 / psy=1 / psy_rd=1.10:0.20 / mixed_ref=1 / me_range=48 / chroma_me=1 / trellis=2 / 8x8dct=1 / cqm=0 / deadzone=21,11 / fast_pskip=0 / chroma_qp_offset=-3 / threads=12 / lookahead_threads=3 / sliced_threads=0 / nr=0 / decimate=0 / interlaced=0 / bluray_compat=0 / constrained_intra=0 / bframes=10 / b_pyramid=2 / b_adapt=2 / b_bias=0 / direct=3 / weightb=1 / open_gop=1 / weightp=2 / keyint=240 / keyint_min=23 / scenecut=40 / intra_refresh=0 / rc_lookahead=40 / rc=2pass / mbtree=0 / bitrate=8828 / ratetol=1.0 / qcomp=0.60 / qpmin=0 / qpmax=69 / qpstep=4 / cplxblur=20.0 / qblur=0.5 / vbv_maxrate=50000 / vbv_bufsize=62500 / nal_hrd=none / filler=0 / ip_ratio=1.40 / pb_ratio=1.30 / aq=3:0.90
Language : English
Default : Yes
Forced : No
Audio #1
ID : 2
Format : DTS
Format/Info : Digital Theater Systems
Mode : 16
Format settings, Endianness : Big
Codec ID : A_DTS
Duration : 1h 39mn
Bit rate mode : Constant
Bit rate : 768 Kbps
Channel(s) : 2 channels
Channel positions : Front: L R
Sampling rate : 48.0 KHz
Bit depth : 24 bits
Compression mode : Lossy
Stream size : 547 MiB (6%)
Title : DUB [ст. Пифагор]
Language : Russian
Default : Yes
Forced : No
Audio #2
ID : 3
Format : DTS
Format/Info : Digital Theater Systems
Mode : 16
Format settings, Endianness : Big
Codec ID : A_DTS
Duration : 1h 39mn
Bit rate mode : Constant
Bit rate : 768 Kbps
Channel(s) : 2 channels
Channel positions : Front: L R
Sampling rate : 48.0 KHz
Bit depth : 24 bits
Compression mode : Lossy
Stream size : 547 MiB (6%)
Title : MVO [CTC]
Language : Russian
Default : No
Forced : No
Audio #3
ID : 4
Format : DTS
Format/Info : Digital Theater Systems
Mode : 16
Format settings, Endianness : Big
Codec ID : A_DTS
Duration : 1h 39mn
Bit rate mode : Constant
Bit rate : 768 Kbps
Channel(s) : 2 channels
Channel positions : Front: L R
Sampling rate : 48.0 KHz
Bit depth : 24 bits
Compression mode : Lossy
Stream size : 547 MiB (6%)
Title : AVO [С. Визгунов]
Language : Russian
Default : No
Forced : No
Audio #4
ID : 5
Format : DTS
Format/Info : Digital Theater Systems
Mode : 16
Format settings, Endianness : Big
Codec ID : A_DTS
Duration : 1h 39mn
Bit rate mode : Constant
Bit rate : 768 Kbps
Channel(s) : 2 channels
Channel positions : Front: L R
Sampling rate : 48.0 KHz
Bit depth : 24 bits
Compression mode : Lossy
Stream size : 547 MiB (6%)
Title : AVO [А. Михалёв]
Language : Russian
Default : No
Forced : No
Audio #5
ID : 6
Format : DTS
Format/Info : Digital Theater Systems
Mode : 16
Format settings, Endianness : Big
Codec ID : A_DTS
Duration : 1h 39mn
Bit rate mode : Constant
Bit rate : 768 Kbps
Channel(s) : 2 channels
Channel positions : Front: L R
Sampling rate : 48.0 KHz
Bit depth : 24 bits
Compression mode : Lossy
Stream size : 547 MiB (6%)
Title : AVO [В. Дохалов]
Language : Russian
Default : No
Forced : No
Audio #6
ID : 7
Format : DTS
Format/Info : Digital Theater Systems
Mode : 16
Format settings, Endianness : Big
Codec ID : A_DTS
Duration : 1h 39mn
Bit rate mode : Constant
Bit rate : 768 Kbps
Channel(s) : 2 channels
Channel positions : Front: L R
Sampling rate : 48.0 KHz
Bit depth : 24 bits
Compression mode : Lossy
Stream size : 547 MiB (6%)
Title : Original
Language : English
Default : No
Forced : No
Text
ID : 8
Format : UTF-8
Codec ID : S_TEXT/UTF8
Codec ID/Info : UTF-8 Plain Text
Title : Full
Language : English
Default : No
Forced : No
Menu
00:00:00.000 : en:Family Problems
00:06:12.372 : en:Relatively Speaking
00:12:54.190 : en:The Buck Stops Here
00:18:37.700 : en:A Chilly Reception
00:23:03.090 : en:Bug Spraying
00:30:40.797 : en:Running The Asylum
00:36:45.495 : en:Dirty Laundry
00:39:42.630 : en:A Night On The Town
00:45:41.697 : en:Party Time
00:53:32.418 : en:Back To School
00:59:13.383 : en:Girl Troubles
01:10:18.381 : en:Adventures In Babysitting
01:15:35.948 : en:Saving Tia
01:21:24.129 : en:Making Up Is Hard To Do
01:28:07.240 : en:And A Great Sense Of Humor
01:31:20.433 : en:Going Home/End Credits

Скриншоты



Релиз от: ivandubskoj
[Профиль] [ЛС]
Показать сообщения:    

Текущее время: Сегодня 07:05

Часовой пояс: GMT



Вы не можете начинать темы
Вы не можете отвечать на сообщения
Вы не можете редактировать свои сообщения
Вы не можете удалять свои сообщения
Вы не можете голосовать в опросах
Вы не можете прикреплять файлы к сообщениям
Вы не можете скачивать файлы