Дядюшка Ау / 3 серии (Иосиф Доукша, Майя Бузинова) [1979 г., мультфильм, DVB]

 
Автор Сообщение

TorrentFilm ®

Пол:

Стаж: 1 год 11 месяцев

Сообщений: 7741



Награды: Нет

Торрент-статистика

Создавать темы 01-Янв-2016 00:16

[Цитировать]

Дядюшка Ау / (3 серии)
Жанр: мультфильм
Год выпуска: 1979
Продолжительность: 00:19:00 + 00:18:08 + 00:18:24
Режиссёр: Иосиф Доукша, Майя Бузинова
Описание: весёлая, добрая и в меру поучительная сказка по мотивам повести финского писателя Ханну Мякеля "Дядюшка Ау". "Осенью на севере темнеет рано... так рано что в лесу совсем не рассветает и трудно понять что сейчас день или ночь". Вот тут и живет "дядюшка Ау - зловещий и страшный, правда очень маленький. Каждый вечер он отправляется на работу. Если где-то заскрипит дверь, если на кухне что-то зашлепает и зачавкает, что-то загрохочет и заворочеется на чердаке - это он ..."
1. "Дядюшка Ау . 1 серия" 1979г
2. "Ошибка Дядюшки Ау. 2 серия" 1979г.
3. "Дядюшка Ау в городе. 3 серия" 1979г.
Доп. информация:

Релиз группы:
Трансляция спутникового канала: "Карусель"
Качество видео: DVB
Формат видео: MPEG-PS
Видео: MPEG2 Video, 720x576, 25 fps, 3500 kbps
Аудио: MPEG Audio, 2 сh, 48 kHz, 192 kbps

MediaInfo

D:\Дядюшка АУ\1c. Дядюшка АУ (1979)_DVB by SLuMeP.mpg
General
Complete name : D:\Дядюшка АУ\1c. Дядюшка АУ (1979)_DVB by SLuMeP.mpg
Format : MPEG-PS
File size : 497 MiB
Duration : 19mn 0s
Overall bit rate mode : Variable
Overall bit rate : 3 655 Kbps
Writing library : (c) 1998-2010 Womble Multimedia, Inc. / MPEG Video Wizard DVD 5.0.0.114 (01/2010) / Apr 20 2010
Video #224
ID : 224 (0xE0)
Format : MPEG Video
Format version : Version 2
Format profile : Main@Main
Format settings, BVOP : Yes
Format settings, Matrix : Custom
Format settings, GOP : M=3, N=12
Duration : 19mn 0s
Bit rate mode : Variable
Bit rate : 3 391 Kbps
Maximum bit rate : 5 000 Kbps
Width : 720 pixels
Height : 576 pixels
Display aspect ratio : 4:3
Frame rate : 25.000 fps
Standard : PAL
Color space : YUV
Chroma subsampling : 4:2:0
Bit depth : 8 bits
Scan type : Interlaced
Scan order : Top Field First
Compression mode : Lossy
Bits/(Pixel*Frame) : 0.327
Stream size : 461 MiB (93%)
Writing library : (c) 1998-2010 Womble Multimedia, Inc. / MPEG Video Wizard DVD 5.0.0.114 (01/2010) / Apr 20 2010
Audio #192
ID : 192 (0xC0)
Format : MPEG Audio
Format version : Version 1
Format profile : Layer 2
Duration : 19mn 0s
Bit rate mode : Constant
Bit rate : 192 Kbps
Channel(s) : 2 channels
Sampling rate : 48.0 KHz
Compression mode : Lossy
Stream size : 26.1 MiB (5%)
[Профиль] [ЛС]
Кто просматривает тему:

Форум Тема Автор Размер
Фильмы (HD Rips | 720p, 1080p) Дядюшка Бак / Uncle Buck (1989) BDRip 720p от ivandubskoj | D, P, A Russian Mafia 9.35 GB
Показать сообщения:    

Текущее время: Сегодня 15:54

Часовой пояс: GMT



Вы не можете начинать темы
Вы не можете отвечать на сообщения
Вы не можете редактировать свои сообщения
Вы не можете удалять свои сообщения
Вы не можете голосовать в опросах
Вы не можете прикреплять файлы к сообщениям
Вы не можете скачивать файлы