«Дюна» Ходоровского / Jodorowsky\'s Dune (Фрэнк Павич / Frank Pavich) [2013, Документальный, кинематограф, история, BDRip 720p] rus sub + Original

 
Автор Сообщение

TorrentFilm ®

Пол:

Стаж: 1 год 11 месяцев

Сообщений: 7741



Награды: Нет

Торрент-статистика

Создавать темы 13-Фев-2015 00:00

[Цитировать]

«Дюна» Ходоровского / Jodorowsky's Dune
Дата/Год выпуска: 2013
Страна: США, Франция
Жанр: Документальный, кинематограф, история
Продолжительность: 01:30:14
Перевод: Субтитры
Доп. инфо о переводе: effrit_, Lavroff, afe, kaptnG
Русские субтитры: есть
Формат субтитров: softsub (SRT)
Оригинальная аудиодорожка: Английский, французский, испанский, немецкий
Режиссер: Фрэнк Павич / Frank Pavich
В ролях: Алехандро Ходоровски, Аманда Лир, Бронтис Ходоровский, Кристиан Вандер, Девин Фараси, Дайан О’Бэннон, Дрю МакУини, Гари Кертц, Г.Р. Гигер.
Описание: В начале 1970-х годов режиссёр Алехандро Ходоровски начал подготовку к съёмке экранизации научно-фантастического романа Фрэнка Герберта «Дюна». Однако два года работы так и не дали результата, фильм так и не был снят. Фильм позволит заглянуть за кулисы фильма «Дюна». В нем используются интервью с самим Ходоровски, Гигером и другими членами команды несостоявшейся экранизации.
Доп. информация: Рип lx1966
Сэмпл: http://rusfolder.com/42930931
Качество: BDRip 720p
Формат: MKV
Видео: MPEG-4 AVC, 1280x718, 16:9, 23.976 кадр/с, 7200 Кбит/с
Аудио: AC3, 48 kHz, 640 Кбит/с, 6 ch
Субтитры: Русские, английские

Лог

x264 [info]: frame I:828 Avg QP:10,51 size:170563 PSNR Mean Y:51,83 U:55,65 V:55,77 Avg:52,63 Global:51,37
x264 [info]: frame P:29089 Avg QP:12,86 size: 78637 PSNR Mean Y:49,03 U:53,05 V:53,17 Avg:49,90 Global:48,79
x264 [info]: frame B:99899 Avg QP:14,35 size: 24472 PSNR Mean Y:47,84 U:52,16 V:52,20 Avg:48,75 Global:47,82
x264 [info]: consecutive B-frames: 1,9% 3,1% 4,5% 33,6% 15,5% 29,5% 11,9%
x264 [info]: mb I I16..4: 31,2% 46,0% 22,8%
x264 [info]: mb P I16..4: 7,6% 20,7% 4,8% P16..4: 38,0% 8,5% 11,0% 1,1% 0,8% skip: 7,5%
x264 [info]: mb B I16..4: 0,7% 3,5% 0,4% B16..8: 29,9% 11,1% 4,8% direct:13,3% skip:36,3% L0:41,4% L1:36,1% BI:22,5%
x264 [info]: 8x8 transform intra:65,9% inter:29,8%
x264 [info]: direct mvs spatial:96,7% temporal:3,3%
x264 [info]: coded y,uvDC,uvAC intra: 93,8% 90,2% 86,5% inter: 35,5% 36,4% 19,7%
x264 [info]: i16 v,h,dc,p: 20% 5% 34% 42%
x264 [info]: i8 v,h,dc,ddl,ddr,vr,hd,vl,hu: 14% 13% 27% 6% 7% 7% 7% 8% 10%
x264 [info]: i4 v,h,dc,ddl,ddr,vr,hd,vl,hu: 11% 10% 8% 10% 13% 13% 12% 11% 12%
x264 [info]: i8c dc,h,v,p: 62% 15% 12% 10%
x264 [info]: Weighted P-Frames: Y:10,3% UV:6,1%
x264 [info]: ref P L0: 46,1% 7,3% 19,2% 5,8% 6,8% 3,7% 4,9% 2,4% 3,5% 0,2% 0,0%
x264 [info]: ref B L0: 69,2% 14,0% 5,5% 3,8% 2,7% 2,7% 1,4% 0,7%
x264 [info]: ref B L1: 92,8% 7,2%
x264 [info]: SSIM Mean Y:0,9897079 (19,875db)
x264 [info]: PSNR Mean Y:48,128 U:52,380 V:52,440 Avg:49,032 Global:48,038 kb/s:7200,63
[00:44:47] libhb: work result = 0

MediaInfo исходника

General
Unique ID : 183066414295385287968305468968331472023 (0x89B94F14BEF7250C8450CBF403CD6C97)
Complete name : /media/lx1966/2.0 TB/NNM/Jodorowskys.Dune.2013.1080p.BluRay.REMUX.AVC.DTS-HD.MA 5.1-RARBG/Jodorowskys.Dune.2013.1080p.BluRay.REMUX.AVC.DTS-HD.MA 5.1-RARBG.mkv
Format : Matroska
Format version : Version 4 / Version 2
File size : 17.4 GiB
Duration : 1h 30mn
Overall bit rate mode : Variable
Overall bit rate : 27.6 Mbps
Movie name : RARBG.COM - Jodorowskys.Dune.2013.1080p.BluRay.REMUX.AVC.DTS-HD.MA 5.1-RARBG
Encoded date : UTC 2014-07-01 08:39:39
Writing application : mkvmerge v7.0.0 ('Where We Going') 64bit built on Jun 9 2014 15:16:27
Writing library : libebml v1.3.0 + libmatroska v1.4.1
Video
ID : 1
Format : AVC
Format/Info : Advanced Video Codec
Format profile : High@L4.1
Format settings, CABAC : Yes
Format settings, ReFrames : 2 frames
Format settings, GOP : M=1, N=10
Codec ID : V_MPEG4/ISO/AVC
Duration : 1h 30mn
Bit rate mode : Variable
Width : 1 920 pixels
Height : 1 080 pixels
Display aspect ratio : 16:9
Frame rate mode : Constant
Frame rate : 23.976 fps
Color space : YUV
Chroma subsampling : 4:2:0
Bit depth : 8 bits
Scan type : Progressive
Title : Jodorowskys.Dune.2013.1080p.BluRay.REMUX.AVC.DTS-HD.MA 5.1-RARBG
Language : English
Default : No
Forced : No
Audio
ID : 2
Format : DTS
Format/Info : Digital Theater Systems
Format profile : MA / Core
Mode : 16
Format settings, Endianness : Big
Codec ID : A_DTS
Duration : 1h 30mn
Bit rate mode : Variable
Bit rate : Unknown / 1 509 Kbps
Channel(s) : 6 channels
Channel positions : Front: L C R, Side: L R, LFE
Sampling rate : 48.0 KHz
Bit depth : 24 bits
Compression mode : Lossless / Lossy
Title : Jodorowskys.Dune.2013.1080p.BluRay.REMUX.AVC.DTS-HD.MA 5.1-RARBG
Language : English
Default : Yes
Forced : No
Text #1
ID : 3
Format : PGS
Muxing mode : zlib
Codec ID : S_HDMV/PGS
Codec ID/Info : The same subtitle format used on BDs/HD-DVDs
Language : English
Default : No
Forced : No
Text #2
ID : 4
Format : PGS
Muxing mode : zlib
Codec ID : S_HDMV/PGS
Codec ID/Info : The same subtitle format used on BDs/HD-DVDs
Language : English
Default : No
Forced : No
Text #3
ID : 5
Format : PGS
Muxing mode : zlib
Codec ID : S_HDMV/PGS
Codec ID/Info : The same subtitle format used on BDs/HD-DVDs
Language : English
Default : No
Forced : No
Text #4
ID : 6
Format : PGS
Muxing mode : zlib
Codec ID : S_HDMV/PGS
Codec ID/Info : The same subtitle format used on BDs/HD-DVDs
Language : French
Default : No
Forced : No

MediaInfo

General
Complete name : /home/lx1966/Шаблоны/Jodorowsky's.Dune.2013.BDRip.720/Jodorowsky's.Dune.2013.BDRip.720.srt
File size : 89.4 KiB
General
Unique ID : 192983693763909048388870631169586279138 (0x912F4EB5B01831905BEA5FA47022B2E2)
Complete name : /home/lx1966/Шаблоны/Jodorowsky's.Dune.2013.BDRip.720/Jodorowsky's.Dune.2013.BDRip.720.mkv
Format : Matroska
Format version : Version 4 / Version 2
File size : 4.94 GiB
Duration : 1h 30mn
Overall bit rate : 7 842 Kbps
Encoded date : UTC 2015-02-05 05:52:12
Writing application : mkvmerge v6.7.0 ('Back to the Ground') 64bit built on Jan 9 2014 18:03:17
Writing library : libebml v1.3.0 + libmatroska v1.4.1
TITLE : "Jodorowsky's Dune"
ARTIST : Alejandro Jodorowsky, Michel Seydoux, H.R. Giger
DIRECTOR : Frank Pavich
DATE_RELEASED : 2013
SUMMARY : Rip by lx1966
GENRE : Documentary
DESCRIPTION : USA | France
SYNOPSIS : Language: English | French | German | Spanish / The story of cult film director Alejandro Jodorowsky's ambitious but ultimately doomed film adaptation of the seminal science fiction novel.
Video
ID : 1
Format : AVC
Format/Info : Advanced Video Codec
Format profile : High@L4.0
Format settings, CABAC : Yes
Format settings, ReFrames : 9 frames
Codec ID : V_MPEG4/ISO/AVC
Duration : 1h 30mn
Bit rate : 7 200 Kbps
Width : 1 280 pixels
Height : 718 pixels
Display aspect ratio : 16:9
Frame rate mode : Constant
Frame rate : 23.976 fps
Color space : YUV
Chroma subsampling : 4:2:0
Bit depth : 8 bits
Scan type : Progressive
Bits/(Pixel*Frame) : 0.327
Stream size : 4.44 GiB (90%)
Title : Director: Frank Pavich, 1280x718
Writing library : x264 core 142 r2389 956c8d8
Encoding settings : cabac=1 / ref=9 / deblock=1:0:0 / analyse=0x3:0x133 / me=umh / subme=9 / psy=1 / psy_rd=1,00:0,20 / mixed_ref=0 / me_range=24 / chroma_me=1 / trellis=2 / 8x8dct=1 / cqm=0 / deadzone=21,11 / fast_pskip=1 / chroma_qp_offset=-3 / threads=6 / lookahead_threads=1 / sliced_threads=0 / nr=0 / decimate=0 / interlaced=0 / bluray_compat=0 / constrained_intra=0 / bframes=6 / b_pyramid=2 / b_adapt=2 / b_bias=0 / direct=3 / weightb=1 / open_gop=0 / weightp=2 / keyint=240 / keyint_min=24 / scenecut=40 / intra_refresh=0 / rc_lookahead=40 / rc=2pass / mbtree=0 / bitrate=7200 / ratetol=1,0 / qcomp=0,60 / qpmin=0 / qpmax=69 / qpstep=4 / cplxblur=20,0 / qblur=0,5 / vbv_maxrate=20000 / vbv_bufsize=25000 / nal_hrd=none / filler=0 / ip_ratio=1,40 / pb_ratio=1,30 / aq=1:1,00
Language : English
Default : Yes
Forced : No
Color primaries : BT.709
Transfer characteristics : BT.709
Matrix coefficients : BT.709
Audio
ID : 2
Format : AC-3
Format/Info : Audio Coding 3
Mode extension : CM (complete main)
Format settings, Endianness : Big
Codec ID : A_AC3
Duration : 1h 30mn
Bit rate mode : Constant
Bit rate : 640 Kbps
Channel(s) : 6 channels
Channel positions : Front: L C R, Side: L R, LFE
Sampling rate : 48.0 KHz
Bit depth : 16 bits
Compression mode : Lossy
Stream size : 413 MiB (8%)
Title : AC-3, 6ch, 16 bits, 48.0 KHz, 640 kbps
Language : English
Default : Yes
Forced : No
General
Complete name : /home/lx1966/Шаблоны/Jodorowsky's.Dune.2013.BDRip.720/Jodorowsky's.Dune.2013.BDRip.720.en.srt
Format : SubRip
File size : 94.4 KiB
Text
Format : SubRip
Compression mode : Lossless

Сравнение

1920x1080 рип
1920x1080 рип
1920x1080 рип
1920x1080 рип

Скриншоты

С русскими субтитрами

С английскими субтитрами

[Профиль] [ЛС]
Кто просматривает тему:

Показать сообщения:    

Текущее время: Сегодня 20:02

Часовой пояс: GMT



Вы не можете начинать темы
Вы не можете отвечать на сообщения
Вы не можете редактировать свои сообщения
Вы не можете удалять свои сообщения
Вы не можете голосовать в опросах
Вы не можете прикреплять файлы к сообщениям
Вы не можете скачивать файлы