Дэмиен / Damien [S01] (2016) WEB-DL 720p | OMSKBIRD

 
Автор Сообщение

достали все ®

Пол:

Стаж: 1 год 8 месяцев

Сообщений: 6525



Награды: 12 (Подробнее)

Mega Releaser 2 (Количество: 1) Mega Seeder 2 (Количество: 1) Mega Seeder 3 (Количество: 1)
Торрент-статистика

Создавать темы 11-Май-2016 02:49

[Цитировать]

Информация о фильме
Название: Дэмиен
Оригинальное название: Damien
Год выхода: 2016
Жанр: ужасы, драма
Режиссер: Ник Копус, Тим Эндрю, Эрнест Р. Дикерсон
В ролях: Брэдли Джеймс, Омид Абтахи, Мэгалин Эчиканвоке, Барбара Херши, Дэвид Мюнье, Мелани Скрофано и др.
О фильме:
Он умен, хорошо сложен и может найти выход из любой ситуации благодаря своему очарованию.
Дэмиену придется принять то, что в смерти его приемных родителей виноваты он и силы зла, которые защищают его только потому,
что судьбой ему предназначено стать Антихристом — самым страшным человеком на протяжении веков.


Страна: США
Продолжительность: ~ 44 мин. серия
Перевод: Любительский (многоголосый закадровый) | OMSKBIRD
Файл
Кодек: MPEG-4 AVC/H.264
Качество: WEB-DL 720p
Видео: AVC, 1280x718, 23.976 fps, ~ 3894 kbps
Звук: Аудио rus: AC-3, 48 KHz, 6 ch, 384 kbps | OMSKBIRD records
Аудио eng: AC-3, 48 KHz, 6 ch, 384 kbps
Семпл

Скриншоты

Mediainfo:

General
Unique ID : 236932953604854967709960952289978981500 (0xB23FA0841E5E04CFB03D53996E9F9C7C)
Complete name : F:Мои ДокументыВидеоРАЗДАЧИДэмиенDamien S01 WEB-DL 720p (OMSKBIRD)Damien S01E01 WEB-DL 720p (OMSKBIRD).mkv
Format : Matroska
Format version : Version 2
File size : 1.44 GiB
Duration : 43mn 13s
Overall bit rate : 4 756 Kbps
Movie name : Damien.S01E01.720p.WEB-DL.DD5.1.H264-RARBG
Encoded date : UTC 2016-03-09 20:39:12
Writing application : mkvmerge v4.0.0 ('The Stars were mine') сборка от Jun 6 2010 16:18:42
Writing library : libebml v1.0.0 + libmatroska v1.0.0
Attachment : Yes / Yes / Yes / Yes
Video
ID : 1
Format : AVC
Format/Info : Advanced Video Codec
Format profile : High@L3.1
Format settings, CABAC : No
Format settings, ReFrames : 2 frames
Codec ID : V_MPEG4/ISO/AVC
Duration : 43mn 13s
Bit rate : 3 894 Kbps
Width : 1 280 pixels
Height : 718 pixels
Display aspect ratio : 16:9
Frame rate : 23.976 fps
Color space : YUV
Chroma subsampling : 4:2:0
Bit depth : 8 bits
Scan type : Progressive
Bits/(Pixel*Frame) : 0.177
Stream size : 1.18 GiB (82%)
Title : Damien.S01E01.720p.WEB-DL.DD5.1.H264-RARBG
Language : English
Default : No
Forced : No
Color primaries : BT.709-5, BT.1361, IEC 61966-2-4, SMPTE RP177
Transfer characteristics : BT.709-5, BT.1361
Matrix coefficients : BT.709-5, BT.1361, IEC 61966-2-4 709, SMPTE RP177
Audio #1
ID : 2
Format : AC-3
Format/Info : Audio Coding 3
Mode extension : CM (complete main)
Format settings, Endianness : Big
Codec ID : A_AC3
Duration : 43mn 13s
Bit rate mode : Constant
Bit rate : 384 Kbps
Channel(s) : 6 channels
Channel positions : Front: L C R, Side: L R, LFE
Sampling rate : 48.0 KHz
Bit depth : 16 bits
Compression mode : Lossy
Stream size : 119 MiB (8%)
Language : Russian
Default : Yes
Forced : No
Audio #2
ID : 3
Format : AC-3
Format/Info : Audio Coding 3
Mode extension : CM (complete main)
Format settings, Endianness : Big
Codec ID : A_AC3
Duration : 43mn 13s
Bit rate mode : Constant
Bit rate : 384 Kbps
Channel(s) : 6 channels
Channel positions : Front: L C R, Side: L R, LFE
Sampling rate : 48.0 KHz
Bit depth : 16 bits
Compression mode : Lossy
Stream size : 119 MiB (8%)
Language : English
Default : No
Forced : No

Релиз:

Перевод • Анна Помигуева
Роли озвучивали • Павел Ярощик, Ирина Воронова, Владислав Данилов
Звукорежиссер • Павел Квентов
Постер • Ксения Просветова
Релиз подготовил • Gater
[Профиль] [ЛС]
Показать сообщения:    

Текущее время: Сегодня 11:57

Часовой пояс: GMT



Вы не можете начинать темы
Вы не можете отвечать на сообщения
Вы не можете редактировать свои сообщения
Вы не можете удалять свои сообщения
Вы не можете голосовать в опросах
Вы не можете прикреплять файлы к сообщениям
Вы не можете скачивать файлы