Дэмиен / Damien [S01] (2016) WEB-DLRip | OMSKBIRD

 
Автор Сообщение

достали все ®

Пол:

Стаж: 1 год 8 месяцев

Сообщений: 6627



Награды: 12 (Подробнее)

Mega Seeder 1 (Количество: 1) Mega Releaser 2 (Количество: 1) Mega Seeder 4 (Количество: 1)
Торрент-статистика

Создавать темы 11-Май-2016 02:48

[Цитировать]

Информация о фильме
Название: Дэмиен
Оригинальное название: Damien
Год выхода: 2016
Жанр: ужасы, драма
Режиссер: Ник Копус, Тим Эндрю, Эрнест Р. Дикерсон
В ролях: Брэдли Джеймс, Омид Абтахи, Мэгалин Эчиканвоке, Барбара Херши, Дэвид Мюнье, Мелани Скрофано и др.
О фильме:
Он умен, хорошо сложен и может найти выход из любой ситуации благодаря своему очарованию.
Дэмиену придется принять то, что в смерти его приемных родителей виноваты он и силы зла, которые защищают его только потому,
что судьбой ему предназначено стать Антихристом — самым страшным человеком на протяжении веков.

Страна: США
Продолжительность: ~ 44 мин. серия
Перевод: Любительский (многоголосый закадровый) | OMSKBIRD
Файл
Кодек: Xvid
Качество: WEB-DLRip
Видео: AVI, 720x400 (16:9), 23.976 fps, ~ 2000 kbps
Звук: Аудио rus: AC-3, 48 KHz, 2 ch, 192 kbps | OMSKBIRD records
Аудио eng: AC-3, 48 KHz, 2 ch, 192 kbps
Семпл

Скриншоты

Mediainfo:

General
General
Complete name : F:Мои ДокументыВидеоРАЗДАЧИДэмиенDamien S01 WEB-DLRip (OMSKBIRD)Damien S01E01 WEB-DLRip (OMSKBIRD).avi
Format : AVI
Format/Info : Audio Video Interleave
Format profile : OpenDML
Format settings : rec
File size : 732 MiB
Duration : 43mn 13s
Overall bit rate : 2 366 Kbps
Writing application : AVI-Mux GUI 1.17.8.3, Feb 16 201019:42:50
Video
ID : 0
Format : MPEG-4 Visual
Format profile : Advanced Simple@L5
Format settings, BVOP : 1
Format settings, QPel : No
Format settings, GMC : No warppoints
Format settings, Matrix : Default (MPEG)
Codec ID : XVID
Codec ID/Hint : XviD
Duration : 43mn 13s
Bit rate : 1 975 Kbps
Width : 720 pixels
Height : 400 pixels
Display aspect ratio : 16:9
Frame rate : 23.976 fps
Color space : YUV
Chroma subsampling : 4:2:0
Bit depth : 8 bits
Scan type : Progressive
Compression mode : Lossy
Bits/(Pixel*Frame) : 0.286
Stream size : 611 MiB (83%)
Writing library : XviD 1.2.1 (UTC 2008-12-04)
Audio #1
ID : 1
Format : AC-3
Format/Info : Audio Coding 3
Mode extension : CM (complete main)
Format settings, Endianness : Big
Codec ID : 2000
Duration : 43mn 13s
Bit rate mode : Constant
Bit rate : 192 Kbps
Channel(s) : 2 channels
Channel positions : Front: L R
Sampling rate : 48.0 KHz
Bit depth : 16 bits
Compression mode : Lossy
Stream size : 59.4 MiB (8%)
Alignment : Aligned on interleaves
Interleave, duration : 64 ms (1.53 video frames)
Interleave, preload duration : 192 ms
Audio #2
ID : 2
Format : AC-3
Format/Info : Audio Coding 3
Mode extension : CM (complete main)
Format settings, Endianness : Big
Codec ID : 2000
Duration : 43mn 13s
Bit rate mode : Constant
Bit rate : 192 Kbps
Channel(s) : 2 channels
Channel positions : Front: L R
Sampling rate : 48.0 KHz
Bit depth : 16 bits
Compression mode : Lossy
Stream size : 59.4 MiB (8%)
Alignment : Aligned on interleaves
Interleave, duration : 64 ms (1.53 video frames)
Interleave, preload duration : 192 ms

Релиз:

Перевод • Анна Помигуева
Роли озвучивали • Павел Ярощик, Ирина Воронова, Владислав Данилов
Звукорежиссер • Павел Квентов
Постер • Ксения Просветова
Релиз подготовил • Gater
[Профиль] [ЛС]
Показать сообщения:    

Текущее время: Сегодня 10:14

Часовой пояс: GMT



Вы не можете начинать темы
Вы не можете отвечать на сообщения
Вы не можете редактировать свои сообщения
Вы не можете удалять свои сообщения
Вы не можете голосовать в опросах
Вы не можете прикреплять файлы к сообщениям
Вы не можете скачивать файлы