Дэдпул / Deadpool (2016) UHD BDRemux 2160p | 4K | HDR | D, P, A | Лицензия

 
Автор Сообщение

BOSS ®

Пол:

Стаж: 3 года 9 месяцев

Сообщений: 11123

Откуда: ODESSA



Награды: 22 (Подробнее)

За внесенный вклад в развитие сайта (Количество: 1) Mega Releaser 2 (Количество: 1) Mega Seeder 4 (Количество: 1)
Торрент-статистика

Создавать темы 12-Янв-2018 17:16

[Цитировать]

Производство: США, Канада / 20th Century Fox Film Corporation, Donners' Company, Kinberg Genre
Жанр: фантастика, боевик, комедия, приключения
Режиссер: Тим Миллер
Продюсер: Саймон Кинберг, Райан Рейнольдс, Лорен Шулер Доннер
Актеры: Райан Рейнольдс, Морена Баккарин, Эд Скрейн, ТиДжей Миллер, Джина Карано, Брианна Хилдебранд, Стефан Капичич, Лесли Уггэмс, Джед Риис, Каран Сони, Майкл Беняер, Стайл Дэйн, Кайл Кэсси, Тэйлор Хиксон, Айзи, Наика Туссэн, Рендал Ридер, Айзек С. Синглтон мл., Джастин Шиппелт, Донна Ямамото
Описание:
Уэйд Уилсон — наёмник. Будучи побочным продуктом программы вооружённых сил под названием «Оружие X», Уилсон приобрёл невероятную силу, проворство и способность к исцелению. Но страшной ценой: его клеточная структура постоянно меняется, а здравомыслие сомнительно. Всё, чего Уилсон хочет, — это держаться на плаву в социальной выгребной яме. Но течение в ней слишком быстрое.

Релиз от: OMFUG, arxivariys
Продолжительность: 01:48:42
Качество: UHD BDRemux (HDR)
Перевод: Дублированный (Лицензия BD CEE), Профессиональный (многоголосый, закадровый) (Кубик в кубе и не только), Авторский (одноголосый, закадровый) (Ю. Живов, Ю. Сербин, Е. Гаевский, А. Матвеев, А. Карповский)
Субтитры: Русские (5 видов), украинские (forced, full), английские (7 видов)
Видео: HEVC/H.265, 3840x2160p, (16:9), 45,0 Мбит/сек, 23,976 fps
Аудио 1: DTS, 6 ch, 768 kbps - Русский, Дубляж
Аудио 2: DTS-HD MA, 8 ch, 4893 kbps - Русский, Кубик в кубе и не только
Аудио 3: DTS-HD MA, 8 ch, 4835 kbps - Русский, Ю. Живов
Аудио 4: DTS-HD MA, 8 ch, 4829 kbps - Русский, Ю. Сербин
Аудио 5: DTS-HD MA, 8 ch, 4822 kbps - Русский, Е. Гаевский
Аудио 6: DTS-HD MA, 8 ch, 4909 kbps - Русский, А. Матвеев
Аудио 7: DTS-HD MA, 8 ch, 4831 kbps - Русский, А. Карповский
Аудио 8: AC3, 6 ch, 448 kbps - Украинский
Аудио 9: DTS-HD MA, 8 ch, 3840 kbps - Английский
Аудио 10: AC3, 2 ch, 224 kbps - Английский, Commentary with Ryan Reynolds
Аудио 11: AC3, 2 ch, 224 kbps - Английский, Commentary with Tim Miller and Rob Liefeld

MediaInfo:

General
Unique ID : 208462492304644285729079355293330187275 (0x9CD46A6625267A66A6793D740DE2240B)
Complete name : Дэдпул.2016.UHD.BluRay.Remux.2160p.mkv
Format : Matroska
Format version : Version 4 / Version 2
File size : 60.1 GiB
Duration : 1 h 48 min
Overall bit rate : 79.6 Mb/s
Encoded date : UTC 2017-11-29 17:08:29
Writing application : mkvmerge v18.0.0 ('Apricity') 64-bit
Writing library : libebml v1.3.5 + libmatroska v1.4.8
Attachments : poster.jpg
Video
ID : 1
Format : HEVC
Format/Info : High Efficiency Video Coding
Format profile : Main 10@L5.1@High
Codec ID : V_MPEGH/ISO/HEVC
Duration : 1 h 48 min
Bit rate : 45.0 Mb/s
Width : 3 840 pixels
Height : 2 160 pixels
Display aspect ratio : 16:9
Frame rate mode : Constant
Frame rate : 23.976 (24000/1001) FPS
Color space : YUV
Chroma subsampling : 4:2:0 (Type 2)
Bit depth : 10 bits
Bits/(Pixel*Frame) : 0.226
Stream size : 34.0 GiB (57%)
Writing library : ATEME Titan KFE 3.7.3 (4.7.3.1003)
Default : Yes
Forced : No
Color range : Limited
Color primaries : BT.2020
Transfer characteristics : SMPTE ST 2084
Matrix coefficients : BT.2020 non-constant
Mastering display color primaries : R: x=0.680000 y=0.320000, G: x=0.265000 y=0.690000, B: x=0.150000 y=0.060000, White point: x=0.312700 y=0.329000
Mastering display luminance : min: 0.0000 cd/m2, max: 1000.0000 cd/m2
Audio #1
ID : 2
Format : DTS
Format/Info : Digital Theater Systems
Mode : 16
Format settings, Endianness : Big
Codec ID : A_DTS
Duration : 1 h 48 min
Bit rate mode : Constant
Bit rate : 768 kb/s
Channel(s) : 6 channels
Channel positions : Front: L C R, Side: L R, LFE
Sampling rate : 48.0 kHz
Frame rate : 93.750 FPS (512 SPF)
Bit depth : 24 bits
Compression mode : Lossy
Stream size : 594 MiB (1%)
Title : Dub, Blu-Ray
Language : Russian
Default : Yes
Forced : No
Audio #2
ID : 3
Format : DTS
Format/Info : Digital Theater Systems
Format profile : MA / ES Matrix / Core
Mode : 16
Format settings, Endianness : Big
Codec ID : A_DTS
Duration : 1 h 48 min
Bit rate mode : Variable / Constant / Constant
Bit rate : 4 893 kb/s / 1 509 kb/s / 1 509 kb/s
Channel(s) : 8 channels / 7 channels / 6 channels
Channel positions : Front: L C R, Side: L R, Back: L R, LFE / Front: L C R, Side: L R, Back: C, LFE / Front: L C R, Side: L R, LFE
Sampling rate : 48.0 kHz
Frame rate : 93.750 FPS (512 SPF)
Bit depth : 24 bits
Compression mode : Lossless / Lossy / Lossy
Stream size : 3.69 GiB (6%)
Title : MVO
Language : Russian
Default : No
Forced : No
Audio #3
ID : 4
Format : DTS
Format/Info : Digital Theater Systems
Format profile : MA / Core
Mode : 16
Format settings, Endianness : Big
Codec ID : A_DTS
Duration : 1 h 48 min
Bit rate mode : Variable / Constant
Bit rate : 4 835 kb/s / 1 509 kb/s
Channel(s) : 8 channels / 6 channels
Channel positions : Front: L C R, Side: L R, Back: L R, LFE / Front: L C R, Side: L R, LFE
Sampling rate : 48.0 kHz
Frame rate : 93.750 FPS (512 SPF)
Bit depth : 24 bits
Compression mode : Lossless / Lossy
Stream size : 3.65 GiB (6%)
Title : Ю. Живов
Language : Russian
Default : No
Forced : No
Audio #4
ID : 5
Format : DTS
Format/Info : Digital Theater Systems
Format profile : MA / Core
Mode : 16
Format settings, Endianness : Big
Codec ID : A_DTS
Duration : 1 h 48 min
Bit rate mode : Variable / Constant
Bit rate : 4 829 kb/s / 1 509 kb/s
Channel(s) : 8 channels / 6 channels
Channel positions : Front: L C R, Side: L R, Back: L R, LFE / Front: L C R, Side: L R, LFE
Sampling rate : 48.0 kHz
Frame rate : 93.750 FPS (512 SPF)
Bit depth : 24 bits
Compression mode : Lossless / Lossy
Stream size : 3.65 GiB (6%)
Title : Ю. Сербин
Language : Russian
Default : No
Forced : No
Audio #5
ID : 6
Format : DTS
Format/Info : Digital Theater Systems
Format profile : MA / ES Matrix / Core
Mode : 16
Format settings, Endianness : Big
Codec ID : A_DTS
Duration : 1 h 48 min
Bit rate mode : Variable / Constant / Constant
Bit rate : 4 822 kb/s / 1 509 kb/s / 1 509 kb/s
Channel(s) : 8 channels / 7 channels / 6 channels
Channel positions : Front: L C R, Side: L R, Back: L R, LFE / Front: L C R, Side: L R, Back: C, LFE / Front: L C R, Side: L R, LFE
Sampling rate : 48.0 kHz
Frame rate : 93.750 FPS (512 SPF)
Bit depth : 24 bits
Compression mode : Lossless / Lossy / Lossy
Stream size : 3.64 GiB (6%)
Title : Е. Гаевский
Language : Russian
Default : No
Forced : No
Audio #6
ID : 7
Format : DTS
Format/Info : Digital Theater Systems
Format profile : MA / Core
Mode : 16
Format settings, Endianness : Big
Codec ID : A_DTS
Duration : 1 h 48 min
Bit rate mode : Variable / Constant
Bit rate : 4 909 kb/s / 1 509 kb/s
Channel(s) : 8 channels / 6 channels
Channel positions : Front: L C R, Side: L R, Back: L R, LFE / Front: L C R, Side: L R, LFE
Sampling rate : 48.0 kHz
Frame rate : 93.750 FPS (512 SPF)
Bit depth : 24 bits
Compression mode : Lossless / Lossy
Stream size : 3.71 GiB (6%)
Title : А. Матвеев
Language : Russian
Default : No
Forced : No
Audio #7
ID : 8
Format : DTS
Format/Info : Digital Theater Systems
Format profile : MA / Core
Mode : 16
Format settings, Endianness : Big
Codec ID : A_DTS
Duration : 1 h 48 min
Bit rate mode : Variable / Constant
Bit rate : 4 831 kb/s / 1 509 kb/s
Channel(s) : 8 channels / 6 channels
Channel positions : Front: L C R, Side: L R, Back: L R, LFE / Front: L C R, Side: L R, LFE
Sampling rate : 48.0 kHz
Frame rate : 93.750 FPS (512 SPF)
Bit depth : 24 bits
Compression mode : Lossless / Lossy
Stream size : 3.65 GiB (6%)
Title : А. Карповский
Language : Russian
Default : No
Forced : No
Audio #8
ID : 9
Format : AC-3
Format/Info : Audio Coding 3
Format settings, Endianness : Big
Codec ID : A_AC3
Duration : 1 h 48 min
Bit rate mode : Constant
Bit rate : 448 kb/s
Channel(s) : 6 channels
Channel positions : Front: L C R, Side: L R, LFE
Sampling rate : 48.0 kHz
Frame rate : 31.250 FPS (1536 SPF)
Bit depth : 16 bits
Compression mode : Lossy
Stream size : 346 MiB (1%)
Title : Dub, Blu-Ray
Language : Ukrainian
Service kind : Complete Main
Default : No
Forced : No
Audio #9
ID : 10
Format : DTS
Format/Info : Digital Theater Systems
Format profile : MA / Core
Mode : 16
Format settings, Endianness : Big
Codec ID : A_DTS
Duration : 1 h 48 min
Bit rate mode : Variable / Constant
Bit rate : 3 840 kb/s / 1 509 kb/s
Channel(s) : 8 channels / 6 channels
Channel positions : Front: L C R, Side: L R, Back: L R, LFE / Front: L C R, Side: L R, LFE
Sampling rate : 48.0 kHz
Frame rate : 93.750 FPS (512 SPF)
Bit depth : 24 bits
Compression mode : Lossless / Lossy
Stream size : 2.85 GiB (5%)
Language : English
Default : No
Forced : No
Audio #10
ID : 11
Format : AC-3
Format/Info : Audio Coding 3
Format settings, Endianness : Big
Codec ID : A_AC3
Duration : 1 h 48 min
Bit rate mode : Constant
Bit rate : 224 kb/s
Channel(s) : 2 channels
Channel positions : Front: L R
Sampling rate : 48.0 kHz
Frame rate : 31.250 FPS (1536 SPF)
Bit depth : 16 bits
Compression mode : Lossy
Stream size : 173 MiB (0%)
Title : Commentary with Ryan Reynolds, Rhett Reese and Paul Wernick
Language : English
Service kind : Complete Main
Default : No
Forced : No
Audio #11
ID : 12
Format : AC-3
Format/Info : Audio Coding 3
Format settings, Endianness : Big
Codec ID : A_AC3
Duration : 1 h 48 min
Bit rate mode : Constant
Bit rate : 224 kb/s
Channel(s) : 2 channels
Channel positions : Front: L R
Sampling rate : 48.0 kHz
Frame rate : 31.250 FPS (1536 SPF)
Bit depth : 16 bits
Compression mode : Lossy
Stream size : 173 MiB (0%)
Title : Commentary with Tim Miller and Rob Liefeld
Language : English
Service kind : Complete Main
Default : No
Forced : No
Text #1
ID : 13
Format : UTF-8
Codec ID : S_TEXT/UTF8
Codec ID/Info : UTF-8 Plain Text
Duration : 1 h 33 min
Bit rate : 0 b/s
Count of elements : 3
Stream size : 136 Bytes (0%)
Title : forced
Language : Russian
Default : Yes
Forced : No
Text #2
ID : 14
Format : UTF-8
Codec ID : S_TEXT/UTF8
Codec ID/Info : UTF-8 Plain Text
Duration : 1 h 47 min
Bit rate : 88 b/s
Count of elements : 1403
Stream size : 69.4 KiB (0%)
Title : full
Language : Russian
Default : No
Forced : No
Text #3
ID : 15
Format : UTF-8
Codec ID : S_TEXT/UTF8
Codec ID/Info : UTF-8 Plain Text
Duration : 1 h 47 min
Bit rate : 106 b/s
Count of elements : 1016
Stream size : 84.0 KiB (0%)
Title : А. Матвеев
Language : Russian
Default : No
Forced : No
Text #4
ID : 16
Format : UTF-8
Codec ID : S_TEXT/UTF8
Codec ID/Info : UTF-8 Plain Text
Duration : 1 h 47 min
Bit rate : 175 b/s
Count of elements : 2253
Stream size : 139 KiB (0%)
Title : Commentary with Ryan Reynolds, Rhett Reese and Paul Wernic
Language : Russian
Default : No
Forced : No
Text #5
ID : 17
Format : UTF-8
Codec ID : S_TEXT/UTF8
Codec ID/Info : UTF-8 Plain Text
Duration : 1 h 47 min
Bit rate : 188 b/s
Count of elements : 1922
Stream size : 149 KiB (0%)
Title : Commentary with Tim Miller and Rob Liefeld
Language : Russian
Default : No
Forced : No
Text #6
ID : 18
Format : UTF-8
Codec ID : S_TEXT/UTF8
Codec ID/Info : UTF-8 Plain Text
Duration : 1 h 47 min
Bit rate : 0 b/s
Count of elements : 13
Stream size : 591 Bytes (0%)
Title : forced
Language : Ukrainian
Default : No
Forced : No
Text #7
ID : 19
Format : UTF-8
Codec ID : S_TEXT/UTF8
Codec ID/Info : UTF-8 Plain Text
Duration : 1 h 47 min
Bit rate : 92 b/s
Count of elements : 1420
Stream size : 73.0 KiB (0%)
Title : full
Language : Ukrainian
Default : No
Forced : No
Text #8
ID : 20
Format : UTF-8
Codec ID : S_TEXT/UTF8
Codec ID/Info : UTF-8 Plain Text
Duration : 1 h 44 min
Bit rate : 56 b/s
Count of elements : 1383
Stream size : 43.1 KiB (0%)
Title : full
Language : English
Default : No
Forced : No
Text #9
ID : 21
Format : UTF-8
Codec ID : S_TEXT/UTF8
Codec ID/Info : UTF-8 Plain Text
Duration : 1 h 47 min
Bit rate : 64 b/s
Count of elements : 1853
Stream size : 50.5 KiB (0%)
Title : SDH
Language : English
Default : No
Forced : No
Text #10
ID : 22
Format : UTF-8
Codec ID : S_TEXT/UTF8
Codec ID/Info : UTF-8 Plain Text
Duration : 1 h 47 min
Bit rate : 81 b/s
Count of elements : 1853
Stream size : 64.5 KiB (0%)
Title : SDH-Colored
Language : English
Default : No
Forced : No
Text #11
ID : 23
Format : UTF-8
Codec ID : S_TEXT/UTF8
Codec ID/Info : UTF-8 Plain Text
Duration : 1 h 47 min
Bit rate : 140 b/s
Count of elements : 2352
Stream size : 111 KiB (0%)
Title : Commentary with Ryan Reynolds, Rhett Reese and Paul Wernick
Language : English
Default : No
Forced : No
Text #12
ID : 24
Format : UTF-8
Codec ID : S_TEXT/UTF8
Codec ID/Info : UTF-8 Plain Text
Duration : 1 h 48 min
Bit rate : 155 b/s
Count of elements : 2421
Stream size : 123 KiB (0%)
Title : Commentary with Ryan Reynolds, Rhett Reese and Paul Wernick, SDH
Language : English
Default : No
Forced : No
Text #13
ID : 25
Format : UTF-8
Codec ID : S_TEXT/UTF8
Codec ID/Info : UTF-8 Plain Text
Duration : 1 h 47 min
Bit rate : 136 b/s
Count of elements : 1963
Stream size : 108 KiB (0%)
Title : Commentary with Tim Miller and Rob Liefel
Language : English
Default : No
Forced : No
Text #14
ID : 26
Format : UTF-8
Codec ID : S_TEXT/UTF8
Codec ID/Info : UTF-8 Plain Text
Duration : 1 h 47 min
Bit rate : 142 b/s
Count of elements : 1994
Stream size : 113 KiB (0%)
Title : Commentary with Tim Miller and Rob Liefel, SDH
Language : English
Default : No
Forced : No
Menu
00:00:00.000 : en:00:00:00.000
00:03:04.726 : en:00:03:04.726
00:05:53.019 : en:00:05:53.019
00:09:30.820 : en:00:09:30.820
00:13:19.090 : en:00:13:19.090
00:16:48.716 : en:00:16:48.716
00:20:12.545 : en:00:20:12.545
00:22:06.408 : en:00:22:06.408
00:27:09.628 : en:00:27:09.628
00:31:58.959 : en:00:31:58.959
00:36:51.709 : en:00:36:51.709
00:41:06.172 : en:00:41:06.172
00:44:45.766 : en:00:44:45.766
00:46:56.605 : en:00:46:56.605
00:50:10.966 : en:00:50:10.966
00:53:18.028 : en:00:53:18.028
00:55:33.038 : en:00:55:33.038
00:59:07.753 : en:00:59:07.753
01:03:05.240 : en:01:03:05.240
01:07:06.439 : en:01:07:06.439
01:09:15.568 : en:01:09:15.568
01:12:29.720 : en:01:12:29.720
01:16:46.393 : en:01:16:46.393
01:20:43.714 : en:01:20:43.714
01:25:53.398 : en:01:25:53.398
01:31:03.792 : en:01:31:03.792
01:34:46.973 : en:01:34:46.973
01:39:52.737 : en:01:39:52.737
Скриншоты:
[Профиль] [ЛС]
Показать сообщения:    

Текущее время: Сегодня 04:25

Часовой пояс: GMT



Вы не можете начинать темы
Вы не можете отвечать на сообщения
Вы не можете редактировать свои сообщения
Вы не можете удалять свои сообщения
Вы не можете голосовать в опросах
Вы не можете прикреплять файлы к сообщениям
Вы не можете скачивать файлы