Дэдпул / Deadpool (2016) BDRip 1080p | Лицензия

 
Автор Сообщение

Russian Mafia ®

Пол:

Стаж: 1 год 8 месяцев

Сообщений: 4247



Награды: 10 (Подробнее)

Top Releaser 3 (Количество: 1) За внесенный вклад в развитие сайта (Количество: 1) Mega Seeder 3 (Количество: 1)
Торрент-статистика

Создавать темы 08-Май-2016 05:50

[Цитировать]

Информация о фильме
Название: Дэдпул
Оригинальное название: Deadpool
Год выхода: 2016
Жанр: фантастика, боевик, комедия, приключения
Режиссер: Тим Миллер
В ролях: Райан Рейнольдс, Морена Баккарин, Эд Скрейн, ТиДжей Миллер, Джина Карано, Брианна Хилдебранд, Стефан Капичич, Лесли Уггэмс, Джед Риис, Каран Сони
О фильме:
Уэйд Уилсон — наёмник. Будучи побочным продуктом программы вооружённых сил под названием «Оружие X», Уилсон приобрёл невероятную силу, проворство и способность к исцелению. Но страшной ценой: его клеточная структура постоянно меняется, а здравомыслие сомнительно. Всё, чего Уилсон хочет, — это держаться на плаву в социальной выгребной яме. Но течение в ней слишком быстрое.

Страна: США, Канада
Студия: 20th Century Fox Film Corporation
Продолжительность: 01:48:06
Перевод: Профессиональный (дублированный) Blu-ray CEE
Релиз:
Файл
Формат: Matroska
Видео: 1920x804 at 23.976 fps, x264@L4.1, ~10700 kbps avg
Aудио#1: Russian: 48 kHz, DTS, 3/2 (L,C,R,l,r) + LFE ch, ~768.00 kbps avg |Дубляж, Blu-ray CEE|
Aудио#2: Ukrainian: 48 kHz, AC3, 3/2 (L,C,R,l,r) + LFE ch, ~448.00 kbps avg |Дубляж, Blu-ray CEE|
Aудио#3: English: 48 kHz, DTS-ES, 3/3 (L,C,R,l,c,r) + LFE ch, ~1509.00 kbps avg
Aудио#4: English: 48 kHz, AC3, 2/0 (L,R) ch, ~224.00 kbps avg |Commentary with director Tim Miller and Deadpool co-creator Rob Liefeld|
Aудио#5: English: 48 kHz, AC3, 2/0 (L,R) ch, ~224.00 kbps avg |Commentary with Ryan Reynolds and writers Paul Wernick and Rhett Reese|
Субтитры: Russian (Forced, iTunes), Russian (iTunes), Ukrainian (Forced, iTunes), Ukrainian (iTunes), English (iTunes), English (SDH), English (Commentary 1 & 2 + SDH)
***Сохранены оригинальные главы как на Blu-ray.
***Видеоряд от CtrlHD!

MI

Общее
Уникальный идентификатор : 249941446736795719313383792734086047161 (0xBC08F8BECCF49F87A428DF54B63725B9)
Полное имя : Deadpool.2016.1080p.BluRay.DTS.Rus.Ukr.3xEng.HDCLUB.mkv
Формат : Matroska
Версия формата : Version 2
Размер файла : 10,7 Гбайт
Продолжительность : 1 ч. 48 м.
Общий поток : 14,2 Мбит/сек
Название фильма : Deadpool (2016) - Release for HDCLUB
Дата кодирования : UTC 2016-05-07 16:50:23
Программа кодирования : mkvmerge v3.4.0 ('Rapunzel') built on May 15 2010 09:38:20
Библиотека кодирования : libebml v0.8.0 + libmatroska v0.9.0
Видео
Идентификатор : 1
Формат : AVC
Формат/Информация : Advanced Video Codec
Профиль формата : High@L4.1
Параметр CABAC формата : Да
Параметр ReFrames формата : 5 кадров
Идентификатор кодека : V_MPEG4/ISO/AVC
Продолжительность : 1 ч. 48 м.
Битрейт : 10,7 Мбит/сек
Ширина : 1920 пикселей
Высота : 804 пикселя
Соотношение сторон : 2,40:1
Режим частоты кадров : Постоянный
Частота кадров : 23,976 кадра/сек
Цветовое пространство : YUV
Субдискретизация насыщенности : 4:2:0
Битовая глубина : 8 бит
Тип развёртки : Прогрессивная
Бит/(Пиксели*Кадры) : 0.290
Размер потока : 8,10 Гбайт (76%)
Заголовок : Deadpool (2016) - Release for HDCLUB
Библиотека кодирования : x264 core 148 r2665kMod a01e339
Настройки программы : cabac=1 / ref=5 / deblock=1:-3:-3 / analyse=0x3:0x133 / me=umh / subme=10 / psy=1 / fade_compensate=0.00 / psy_rd=1.00:0.00 / mixed_ref=1 / me_range=32 / chroma_me=1 / trellis=2 / 8x8dct=1 / cqm=0 / deadzone=21,11 / fast_pskip=0 / chroma_qp_offset=-2 / threads=6 / lookahead_threads=1 / sliced_threads=0 / nr=0 / decimate=0 / interlaced=0 / bluray_compat=0 / constrained_intra=0 / fgo=0 / bframes=8 / b_pyramid=2 / b_adapt=2 / b_bias=0 / direct=3 / weightb=1 / open_gop=0 / weightp=2 / keyint=250 / keyint_min=23 / scenecut=40 / intra_refresh=0 / rc=crf / mbtree=0 / crf=18.0000 / qcomp=0.60 / qpmin=0 / qpmax=69 / qpstep=4 / ip_ratio=1.40 / pb_ratio=1.30 / aq=3:0.90
Язык : English
Default : Да
Forced : Нет
Аудио #1
Идентификатор : 2
Формат : DTS
Формат/Информация : Digital Theater Systems
Режим : 16
Параметр Endianness формата : Big
Идентификатор кодека : A_DTS
Продолжительность : 1 ч. 48 м.
Вид битрейта : Постоянный
Битрейт : 768 Кбит/сек
Каналы : 6 каналов
Расположение каналов : Front: L C R, Side: L R, LFE
Частота : 48,0 КГц
Битовая глубина : 24 бит
Метод сжатия : С потерями
Размер потока : 594 Мбайт (5%)
Заголовок : DTS 5.1 @ 768 kbps - DUB, Blu-ray CEE
Язык : Russian
Default : Да
Forced : Нет
Аудио #2
Идентификатор : 3
Формат : AC-3
Формат/Информация : Audio Coding 3
Расширение режима : CM (complete main)
Параметр Endianness формата : Big
Идентификатор кодека : A_AC3
Продолжительность : 1 ч. 48 м.
Вид битрейта : Постоянный
Битрейт : 448 Кбит/сек
Каналы : 6 каналов
Расположение каналов : Front: L C R, Side: L R, LFE
Частота : 48,0 КГц
Метод сжатия : С потерями
Размер потока : 346 Мбайт (3%)
Заголовок : AC3 5.1 @ 448 kbps - DUB, Blu-ray CEE
Язык : Ukrainian
Default : Нет
Forced : Нет
Аудио #3
Идентификатор : 4
Формат : DTS
Формат/Информация : Digital Theater Systems
Профиль формата : ES
Режим : 16
Параметр Endianness формата : Big
Идентификатор кодека : A_DTS
Продолжительность : 1 ч. 48 м.
Вид битрейта : Постоянный
Битрейт : 1509 Кбит/сек
Каналы : 6 каналов
Расположение каналов : Front: L C R, Side: L R, LFE
Частота : 48,0 КГц
Битовая глубина : 24 бит
Метод сжатия : С потерями
Задержка видео : 11 мс.
Размер потока : 1,14 Гбайт (11%)
Заголовок : DTS-ES 5.1 @ 1536 kbps
Язык : English
Default : Нет
Forced : Нет
Аудио #4
Идентификатор : 5
Формат : AC-3
Формат/Информация : Audio Coding 3
Расширение режима : CM (complete main)
Параметр Endianness формата : Big
Идентификатор кодека : A_AC3
Продолжительность : 1 ч. 48 м.
Вид битрейта : Постоянный
Битрейт : 224 Кбит/сек
Каналы : 2 канала
Расположение каналов : Front: L R
Частота : 48,0 КГц
Метод сжатия : С потерями
Размер потока : 173 Мбайт (2%)
Заголовок : AC3 2.0 @ 224 kbps - Commentary with Ryan Reynolds and writers Paul Wernick and Rhett Reese
Язык : English
Default : Нет
Forced : Нет
Аудио #5
Идентификатор : 6
Формат : AC-3
Формат/Информация : Audio Coding 3
Расширение режима : CM (complete main)
Параметр Endianness формата : Big
Идентификатор кодека : A_AC3
Продолжительность : 1 ч. 48 м.
Вид битрейта : Постоянный
Битрейт : 224 Кбит/сек
Каналы : 2 канала
Расположение каналов : Front: L R
Частота : 48,0 КГц
Метод сжатия : С потерями
Размер потока : 173 Мбайт (2%)
Заголовок : AC3 2.0 @ 224 kbps - Commentary with director Tim Miller and Deadpool co-creator Rob Liefeld
Язык : English
Default : Нет
Forced : Нет
Текст #1
Идентификатор : 7
Формат : UTF-8
Идентификатор кодека : S_TEXT/UTF8
Идентификатор кодека/Информация : UTF-8 Plain Text
Заголовок : Forced, iTunes
Язык : Russian
Default : Да
Forced : Нет
Текст #2
Идентификатор : 8
Формат : UTF-8
Идентификатор кодека : S_TEXT/UTF8
Идентификатор кодека/Информация : UTF-8 Plain Text
Заголовок : iTunes
Язык : Russian
Default : Нет
Forced : Нет
Текст #3
Идентификатор : 9
Формат : UTF-8
Идентификатор кодека : S_TEXT/UTF8
Идентификатор кодека/Информация : UTF-8 Plain Text
Заголовок : Forced, iTunes
Язык : Ukrainian
Default : Нет
Forced : Нет
Текст #4
Идентификатор : 10
Формат : UTF-8
Идентификатор кодека : S_TEXT/UTF8
Идентификатор кодека/Информация : UTF-8 Plain Text
Заголовок : iTunes
Язык : Ukrainian
Default : Нет
Forced : Нет
Текст #5
Идентификатор : 11
Формат : UTF-8
Идентификатор кодека : S_TEXT/UTF8
Идентификатор кодека/Информация : UTF-8 Plain Text
Заголовок : iTunes
Язык : English
Default : Нет
Forced : Нет
Текст #6
Идентификатор : 12
Формат : UTF-8
Идентификатор кодека : S_TEXT/UTF8
Идентификатор кодека/Информация : UTF-8 Plain Text
Заголовок : SDH
Язык : English
Default : Нет
Forced : Нет
Текст #7
Идентификатор : 13
Формат : UTF-8
Идентификатор кодека : S_TEXT/UTF8
Идентификатор кодека/Информация : UTF-8 Plain Text
Заголовок : Commentary with Ryan Reynolds and writers Paul Wernick and Rhett Reese
Язык : English
Default : Нет
Forced : Нет
Текст #8
Идентификатор : 14
Формат : UTF-8
Идентификатор кодека : S_TEXT/UTF8
Идентификатор кодека/Информация : UTF-8 Plain Text
Заголовок : Commentary with Ryan Reynolds and writers Paul Wernick and Rhett Reese SDH
Язык : English
Default : Нет
Forced : Нет
Текст #9
Идентификатор : 15
Формат : UTF-8
Идентификатор кодека : S_TEXT/UTF8
Идентификатор кодека/Информация : UTF-8 Plain Text
Заголовок : Commentary with director Tim Miller and Deadpool co-creator Rob Liefeld
Язык : English
Default : Нет
Forced : Нет
Текст #10
Идентификатор : 16
Формат : UTF-8
Идентификатор кодека : S_TEXT/UTF8
Идентификатор кодека/Информация : UTF-8 Plain Text
Заголовок : Commentary with director Tim Miller and Deadpool co-creator Rob Liefeld SDH
Язык : English
Default : Нет
Forced : Нет
Меню
00:00:00.000 : en:00:00:00.000
00:03:04.726 : en:00:03:04.726
00:05:53.019 : en:00:05:53.019
00:09:30.820 : en:00:09:30.820
00:13:19.090 : en:00:13:19.090
00:16:48.716 : en:00:16:48.716
00:20:12.545 : en:00:20:12.545
00:22:06.408 : en:00:22:06.408
00:27:09.628 : en:00:27:09.628
00:31:58.959 : en:00:31:58.959
00:36:51.709 : en:00:36:51.709
00:41:06.172 : en:00:41:06.172
00:44:45.766 : en:00:44:45.766
00:46:56.605 : en:00:46:56.605
00:50:10.966 : en:00:50:10.966
00:53:18.028 : en:00:53:18.028
00:55:33.038 : en:00:55:33.038
00:59:07.753 : en:00:59:07.753
01:03:05.240 : en:01:03:05.240
01:07:06.439 : en:01:07:06.439
01:09:15.568 : en:01:09:15.568
01:12:29.720 : en:01:12:29.720
01:16:46.393 : en:01:16:46.393
01:20:43.714 : en:01:20:43.714
01:25:53.398 : en:01:25:53.398
01:31:03.792 : en:01:31:03.792
01:34:46.973 : en:01:34:46.973
01:39:52.737 : en:01:39:52.737

Скриншоты


[Профиль] [ЛС]
Показать сообщения:    

Текущее время: Сегодня 06:27

Часовой пояс: GMT



Вы не можете начинать темы
Вы не можете отвечать на сообщения
Вы не можете редактировать свои сообщения
Вы не можете удалять свои сообщения
Вы не можете голосовать в опросах
Вы не можете прикреплять файлы к сообщениям
Вы не можете скачивать файлы