Дьявол / Devil (Джон Эрик Даудл / John Erick Dowdle) [2010, США, Детектив, Триллер, Ужасы, BDRip] Dub (BD CEE) + Sub (Rus, Eng) + Original (Eng)

 
Автор Сообщение

TorrentFilm ®

Пол:

Стаж: 2 года

Сообщений: 7741



Награды: Нет

Торрент-статистика

Создавать темы 26-Июл-2015 00:07

[Цитировать]

Дьявол / Devil

«Зло не приходит случайно»
-Страна: США
Студии: Media Rights Capital, Night Chronicles, Relativity Media
Жанр: Детектив, Триллер, Ужасы
Год выпуска: 2010
Продолжительность: 01:20:21
Перевод: Профессиональный (дублированный) - | BD CEE |
Cубтитры: Русские, английские - SRT*
Оригинальная аудиодорожка: Английская-Режиссер: Джон Эрик Даудл / John Erick Dowdle-В ролях: Крис Мессина, Логан Маршалл-Грин, Дженни О`Хара, Бояна Новакович, Букем Вудбайн, Джеффри Аренд, Джейкоб Варгас, Мэтт Крэвен, Джошуа Пиис, Каролин Давернас...-Описание: Несколько людей, оказавшихся в застрявшем лифте, со временем понимают, что среди них присутствует сам дьявол.- -Качество видео: BDRip | Devil 2010 Blu-ray EUR 1080p DTS-HD MA 5.1- HDCLUB |
Формат видео: AVI
Видео: 720x304, 23.976 fps, XviD build 73, ~1685 kbps, 0.321 bit/pixel
Аудио #1: 48 kHz, AC3 Dolby Digital, 3/2 (L,C,R,l,r) + LFE ch, ~448.00 kbps avg | Dub - BD CEE
Аудио #2: 48 kHz, AC3 Dolby Digital, 3/2 (L,C,R,l,r) + LFE ch, ~448.00 kbps avg | Original Eng - BD CEE
-

Дополнительно о фильме:

Производство, студия дубляжа, прокат:

MediaInfo

General
Complete name : Devil.BDRip.By_Flash.avi
Format : AVI
Format/Info : Audio Video Interleave
File size : 1.46 GiB
Duration : 1h 20mn
Overall bit rate : 2 595 Kbps
Writing application : VirtualDubMod 1.5.10.3 | www.virtualdub-fr.org || (build 2550/release)
Writing library : VirtualDubMod build 2550/release
Video
ID : 0
Format : MPEG-4 Visual
Format profile : Advanced Simple@L5
Format settings, BVOP : 1
Format settings, QPel : No
Format settings, GMC : No warppoints
Format settings, Matrix : Custom
Codec ID : XVID
Codec ID/Hint : XviD
Duration : 1h 20mn
Bit rate : 1 685 Kbps
Width : 720 pixels
Height : 304 pixels
Display aspect ratio : 2.35:1
Frame rate : 23.976 fps
Color space : YUV
Chroma subsampling : 4:2:0
Bit depth : 8 bits
Scan type : Progressive
Compression mode : Lossy
Bits/(Pixel*Frame) : 0.321
Stream size : 968 MiB (65%)
Writing library : XviD 73
Audio #1
ID : 1
Format : AC-3
Format/Info : Audio Coding 3
Mode extension : CM (complete main)
Format settings, Endianness : Big
Codec ID : 2000
Duration : 1h 20mn
Bit rate mode : Constant
Bit rate : 448 Kbps
Channel(s) : 6 channels
Channel positions : Front: L C R, Side: L R, LFE
Sampling rate : 48.0 KHz
Bit depth : 16 bits
Compression mode : Lossy
Stream size : 257 MiB (17%)
Alignment : Split accross interleaves
Interleave, duration : 42 ms (1.00 video frame)
Interleave, preload duration : 500 ms
Audio #2
ID : 2
Format : AC-3
Format/Info : Audio Coding 3
Mode extension : CM (complete main)
Format settings, Endianness : Big
Codec ID : 2000
Duration : 1h 20mn
Bit rate mode : Constant
Bit rate : 448 Kbps
Channel(s) : 6 channels
Channel positions : Front: L C R, Side: L R, LFE
Sampling rate : 48.0 KHz
Bit depth : 16 bits
Compression mode : Lossy
Stream size : 257 MiB (17%)
Alignment : Split accross interleaves
Interleave, duration : 42 ms (1.00 video frame)
Interleave, preload duration : 500 ms

Скриншот c названием фильма

Скриншоты

[Профиль] [ЛС]

Создавать темы 06-Авг-2015 22:23 (спустя 11 дней)

Топик был перенесен из форума Фильмы до 2014 года в форум Фильмы до 2012 года
sergej644
 

Создавать темы 12-Июн-2016 07:55 (спустя 10 месяцев 17 дней)

Топик был перенесен из форума Фильмы 2011 года в форум Фильмы 2010 года
Russian Mafia
 
Показать сообщения:    

Текущее время: Сегодня 01:07

Часовой пояс: GMT



Вы не можете начинать темы
Вы не можете отвечать на сообщения
Вы не можете редактировать свои сообщения
Вы не можете удалять свои сообщения
Вы не можете голосовать в опросах
Вы не можете прикреплять файлы к сообщениям
Вы не можете скачивать файлы