Дьявол носит «Prada» / The Devil Wears Prada (Дэвид Фрэнкел / David Frankel) [2006, США, драма, мелодрама, комедия, HDTVRip] [Open Matte] Dub

 
Автор Сообщение

TorrentFilm ®

Пол:

Стаж: 2 года

Сообщений: 7741



Награды: Нет

Торрент-статистика

Создавать темы 17-Фев-2016 00:09

[Цитировать]

Дьявол носит «Prada» / The Devil Wears Prada / Open Matte
Страна: США
Жанр: драма, мелодрама, комедия
Год выпуска: 2006
Продолжительность: 01:41:55
Перевод: Профессиональный (дублированный)
Cубтитры: нет
Оригинальная аудиодорожка: нет
Режиссер: Дэвид Фрэнкел / David Frankel
В ролях: Мэрил Стрип, Энн Хэтэуэй, Эмили Блант, Стэнли Туччи, Саймон Бэйкер, Адриан Гренье, Трейси Томс, Рич Соммер, Дэниэл Санжата, Дэвид Маршалл Грант
Описание: Мечтающая стать журналисткой провинциальная девушка Андреа по окончании университета получает должность помощницы всесильной Миранды Пристли, деспотичного редактора одного из крупнейших нью-йоркских журналов мод. Андреа всегда мечтала о такой работе, не зная, с каким нервным напряжением это будет связано...
Доп. информация: Рип с канала Первый HD. Из видеоряда удален логотип канала, остались послерекламные вставки с названием фильма. HDTV имеет иное наполнение кадра чем BD http://screenshotcomparison.com/comparison/162088
Сэмпл: http://multi-up.com/1089329
Качество видео: HDTVRip
Формат видео: AVI
Видео: MPEG4, XviD, 720x400 (16:9), 25.000 fps, 1 838 Kbps (0.255 bit/pixel)
Аудио: AC-3, 48.0 KHz, 2 ch, 192 Kbps, CBR

MediaInfo

Общее
Полное имя : N:\Дьявол носит «Prada».avi
Формат : AVI
Формат/Информация : Audio Video Interleave
Размер файла : 1,45 Гбайт
Продолжительность : 1 ч. 41 м.
Общий поток : 2040 Кбит/сек
Название фильма : Дьявол носит «Prada» / The Devil Wears Prada (2006)
Программа кодирования : VirtualDubMod 1.5.10.2 (build 2540/release)
Библиотека кодирования : VirtualDubMod build 2540/release
Авторское право : miha2154
Видео
Идентификатор : 0
Формат : MPEG-4 Visual
Профиль формата : Advanced Simple@L5
Параметр BVOP формата : 1
Параметр QPel формата : Нет
Параметр GMC формата : Без точки перехода
Параметр матрицы формата : Выборочная
Идентификатор кодека : XVID
Идентификатор кодека/Подсказка : XviD
Продолжительность : 1 ч. 41 м.
Битрейт : 1838 Кбит/сек
Ширина : 720 пикселей
Высота : 400 пикселей
Соотношение сторон : 16:9
Частота кадров : 25,000 кадров/сек
Цветовое пространство : YUV
Субдискретизация насыщенности : 4:2:0
Битовая глубина : 8 бит
Тип развёртки : Прогрессивная
Метод сжатия : С потерями
Бит/(Пиксели*Кадры) : 0.255
Размер потока : 1,31 Гбайт (90%)
Библиотека кодирования : XviD 65
Аудио
Идентификатор : 1
Формат : AC-3
Формат/Информация : Audio Coding 3
Расширение режима : CM (complete main)
Параметр Endianness формата : Big
Идентификатор кодека : 2000
Продолжительность : 1 ч. 41 м.
Вид битрейта : Постоянный
Битрейт : 192 Кбит/сек
Каналы : 2 канала
Расположение каналов : Front: L R
Частота : 48,0 КГц
Частота кадров : 31,250 кадров/сек (1536 spf)
Метод сжатия : С потерями
Размер потока : 140 Мбайт (9%)
Выравнивание : Разделение по промежуткам
Продолжительность промежутка : 40 мс. (1,00 видеокадр)
Время предзагрузки промежутка : 500 мс.
Заголовок : Профессиональный (полное дублирование)

Скриншоты


[Профиль] [ЛС]
Показать сообщения:    

Текущее время: Сегодня 22:42

Часовой пояс: GMT



Вы не можете начинать темы
Вы не можете отвечать на сообщения
Вы не можете редактировать свои сообщения
Вы не можете удалять свои сообщения
Вы не можете голосовать в опросах
Вы не можете прикреплять файлы к сообщениям
Вы не можете скачивать файлы