Дьявол носит «Prada» / Дьявол носит Прада / The Devil Wears Prada (Дэвид Фрэнкел / David Frankel) [2006, США, драма, мелодрама, комедия, BDRip-AVC] Dub + DVO + AVO (Сербин) + Original (Eng) + Sub (Rus, Eng)

 
Автор Сообщение

TorrentFilm ®

Пол:

Стаж: 2 года

Сообщений: 7741



Награды: Нет

Торрент-статистика

Создавать темы 08-Апр-2015 00:03

[Цитировать]

Дьявол носит «Prada» / The Devil Wears Prada
Страна: США
Жанр: драма, мелодрама, комедия
Год выпуска: 2006
Продолжительность: 01:49:24
Перевод#1: Профессиональный (дублированный) | R5
Перевод#2: Профессиональный (двухголосый закадровый) (отдельно)
Перевод#3: Авторский (одноголосый закадровый), Ю. Сербин (отдельно)
Cубтитры: русские, английские
Оригинальная аудиодорожка: английский
Режиссер: Дэвид Фрэнкел / David Frankel
В ролях: Мэрил Стрип, Энн Хэтэуэй, Эмили Блант, Стэнли Туччи, Саймон Бэйкер, Адриан Гренье, Трейси Томс, Рич Соммер, Дэниэл Санжата, Дэвид Маршалл Грант
Описание: Мечтающая стать журналисткой провинциальная девушка Андреа по окончании университета получает должность помощницы всесильной Миранды Пристли, деспотичного редактора одного из крупнейших нью-йоркских журналов мод. Андреа всегда мечтала о такой работе, не зная, с каким нервным напряжением это будет связано...

Дополнительно: двухголоска отсюда, Сербин с пиратки, всем спасибо
Исходник: Blu-ray CEE
Качество видео: BDRip-AVC | | sample
Формат видео: MKV
Видео кодек: x264
Видео: AVC 1152x490 (2.35:1), 23.976 fps, ~4300 Kbps, 0.31 bit/pixel
Аудио #1: Russian AC3 6ch 48kHz 448Kbps | Dub R5
Аудио #2: English AC3 6ch 48kHz 448Kbps | Original
Аудио #3: Russian AC3 2ch 48kHz 192Kbps | DVO (отдельным файлом)
Аудио #4: Russian AC3 6ch 48kHz 448Kbps | AVO Сербин (отдельным файлом)
Формат субтитров: softsub (SRT)
Главы: есть

MediaInfo | x264x264

--[Information] [19.03.2015 7:05:54] x264 [info]: frame I:1336 Avg QP:16.34 size: 88854
--[Information] [19.03.2015 7:05:54] x264 [info]: frame P:31707 Avg QP:18.51 size: 39767
--[Information] [19.03.2015 7:05:54] x264 [info]: frame B:124346 Avg QP:19.34 size: 17316
--[Information] [19.03.2015 7:05:54] x264 [info]: consecutive B-frames: 1.6% 2.2% 5.1% 16.1% 17.1% 45.4% 5.8% 2.2% 1.3% 0.9% 0.6% 0.9% 0.8%
--[Information] [19.03.2015 7:05:55] x264 [info]: kb/s:4305.35
General
Complete name : E:\...\The.Devil.Wears.Prada.2006.BDRip.x264.DD5.1.Rus.Eng-E76.mkv
Format : Matroska
Format version : Version 2
File size : 3.98 GiB
Duration : 1h 49mn
Overall bit rate : 5 204 Kbps
Movie name : The.Devil.Wears.Prada.2006.BDRip.x264DD5.1.Rus.Eng-E76
Encoded date : UTC 2015-03-31 10:29:01
Writing application : mkvmerge v7.0.0 ('Where We Going') 64bit built on Jun 9 2014 15:16:27
Writing library : libebml v1.3.0 + libmatroska v1.4.1
Video
ID : 1
Format : AVC
Format/Info : Advanced Video Codec
Format profile : High@L4.1
Format settings, CABAC : Yes
Format settings, ReFrames : 10 frames
Codec ID : V_MPEG4/ISO/AVC
Duration : 1h 49mn
Bit rate : 4 204 Kbps
Width : 1 150 pixels
Height : 490 pixels
Display aspect ratio : 2.35:1
Frame rate mode : Constant
Frame rate : 23.976 fps
Color space : YUV
Chroma subsampling : 4:2:0
Bit depth : 8 bits
Scan type : Progressive
Bits/(Pixel*Frame) : 0.311
Stream size : 3.21 GiB (81%)
Title : The Devil Wears Prada (2006)
Writing library : x264 core 144 r2525kMod 40bb568
Encoding settings : cabac=1 / ref=10 / deblock=1:-3:-3 / analyse=0x3:0x113 / me=umh / subme=11 / psy=1 / fade_compensate=0.00 / psy_rd=0.95:0.00 / mixed_ref=1 / me_range=48 / chroma_me=1 / trellis=2 / 8x8dct=1 / cqm=0 / deadzone=21,11 / fast_pskip=1 / chroma_qp_offset=-2 / threads=6 / lookahead_threads=1 / sliced_threads=0 / nr=0 / decimate=1 / interlaced=0 / bluray_compat=0 / constrained_intra=0 / fgo=0 / bframes=12 / b_pyramid=2 / b_adapt=2 / b_bias=0 / direct=1 / weightb=1 / open_gop=0 / weightp=2 / keyint=240 / keyint_min=23 / scenecut=40 / intra_refresh=0 / rc_lookahead=0 / rc=crf / mbtree=0 / crf=17.2500 / qcomp=0.65 / qpmin=0 / qpmax=69 / qpstep=4 / vbv_maxrate=62500 / vbv_bufsize=78125 / crf_max=0.0 / nal_hrd=none / filler=0 / ip_ratio=1.40 / pb_ratio=1.30 / aq=1:0.90 / zones=151820,157388,q=30
Language : English
Default : Yes
Forced : No
Matrix coefficients : BT.709
Audio #1
ID : 2
Format : AC-3
Format/Info : Audio Coding 3
Mode extension : CM (complete main)
Format settings, Endianness : Big
Codec ID : A_AC3
Duration : 1h 49mn
Bit rate mode : Constant
Bit rate : 448 Kbps
Channel(s) : 6 channels
Channel positions : Front: L C R, Side: L R, LFE
Sampling rate : 48.0 KHz
Bit depth : 16 bits
Compression mode : Lossy
Stream size : 351 MiB (9%)
Title : Dub R5
Language : Russian
Default : Yes
Forced : No
Audio #2
ID : 3
Format : AC-3
Format/Info : Audio Coding 3
Mode extension : CM (complete main)
Format settings, Endianness : Big
Codec ID : A_AC3
Duration : 1h 49mn
Bit rate mode : Constant
Bit rate : 448 Kbps
Channel(s) : 6 channels
Channel positions : Front: L C R, Side: L R, LFE
Sampling rate : 48.0 KHz
Bit depth : 16 bits
Compression mode : Lossy
Stream size : 351 MiB (9%)
Title : Original
Language : English
Default : No
Forced : No
Text #1
ID : 4
Format : UTF-8
Codec ID : S_TEXT/UTF8
Codec ID/Info : UTF-8 Plain Text
Title : forced
Language : Russian
Default : Yes
Forced : No
Text #2
ID : 5
Format : UTF-8
Codec ID : S_TEXT/UTF8
Codec ID/Info : UTF-8 Plain Text
Language : Russian
Default : No
Forced : No
Text #3
ID : 6
Format : UTF-8
Codec ID : S_TEXT/UTF8
Codec ID/Info : UTF-8 Plain Text
Title : English
Language : English
Default : No
Forced : No
Menu
00:00:00.000 : en:00:00:00.000
00:03:27.707 : en:00:03:27.707
...
01:45:20.314 : en:01:45:20.314

Скриншоты



source vs E76 vs NWO vs tRuAVC


=> Новые релизы в AVC | | Заказ рипов в AVC
[Профиль] [ЛС]

Создавать темы 06-Авг-2015 22:37 (спустя 3 месяца 28 дней)

Топик был перенесен из форума Фильмы до 2014 года в форум Фильмы до 2012 года
sergej644
 
Показать сообщения:    

Текущее время: Сегодня 11:08

Часовой пояс: GMT



Вы не можете начинать темы
Вы не можете отвечать на сообщения
Вы не можете редактировать свои сообщения
Вы не можете удалять свои сообщения
Вы не можете голосовать в опросах
Вы не можете прикреплять файлы к сообщениям
Вы не можете скачивать файлы