Дуэль / The Duel (2016) BDRemux 1080p от ExKinoRay | L

 
Автор Сообщение

Russian Mafia ®

Пол:

Стаж: 1 год 8 месяцев

Сообщений: 4247



Награды: 10 (Подробнее)

Top Releaser 2 (Количество: 1) Mega Seeder 1 (Количество: 1) Mega Seeder 4 (Количество: 1)
Торрент-статистика

Создавать темы 17-Авг-2016 12:07

[Цитировать]

Информация о фильме
Название: Дуэль
Оригинальное название: The Duel
Год выхода: 2016
Жанр: Драма, вестерн
Режиссер: Киран Дарси-Смит
В ролях: Лиам Хемсворт, Эмори Коэн, Вуди Харрельсон, Алиси Брага, Уильям Сэдлер, Бенедикт Сэмюэл, Сью-Линн Ансари, Рафаэль Сбардж, Кристофер Берри, Хосе Суньига
О фильме:
Фильм расскажет о техасском рейнджере Дэвиде, которого заслали во фронтир с целью расследования серии убийств. На месте ему предстоит познакомиться с Авраамом — проповедником, держащим в паническом страхе всю округу.

Страна: США
Студия: 26 Films, Atomic Entertainment (II), Bron Capital Partners, Crystal Wealth, Lionsgate Premiere, Mandeville Films, Media House Capital
Продолжительность: 01:50:09
Перевод: Любительский многоголосый (закадровый) | Paradox & Omskbird records
Файл
Кодек: MPEG-4
Качество: BDRemux 1080p
Видео: 1920x1080, 20.4 Mbit/s, 23.976 fps
Звук:
Аудио #01: 48 kHz, AC3, 5.1, 448 Kbps | Любительский многоголосый (закадровый) | Paradox & Omskbird records |
Аудио #02: 48 kHz, DTS-HD MA, 5.1, 3721 kbps | Оригинал |
Субтитры: Английские

MI

General
Unique ID : 173103080054202012190156978499753922659 (0x823A70C6D9829B848002AA1DC8ECD063)
Complete name : G:VideoThe.Duel.2016.MVO.BDREMUX.1080p.ExKinoRay.mkv
Format : Matroska
Format version : Version 4 / Version 2
File size : 18.9 GiB
Duration : 1h 50mn
Overall bit rate mode : Variable
Overall bit rate : 24.6 Mbps
Movie name : The.Duel.2016.MVO.BDREMUX.1080p.ExKinoRay
Encoded date : UTC 2016-08-17 11:05:09
Writing application : mkvmerge v8.3.0 ('Over the Horizon') 64bit
Writing library : libebml v1.3.1 + libmatroska v1.4.2
Video
ID : 1
Format : AVC
Format/Info : Advanced Video Codec
Format profile : High@L4.1
Format settings, CABAC : Yes
Format settings, ReFrames : 4 frames
Codec ID : V_MPEG4/ISO/AVC
Duration : 1h 50mn
Bit rate mode : Variable
Bit rate : 20.4 Mbps
Maximum bit rate : 37.0 Mbps
Width : 1 920 pixels
Height : 1 080 pixels
Display aspect ratio : 16:9
Frame rate mode : Constant
Frame rate : 23.976 (24000/1001) fps
Color space : YUV
Chroma subsampling : 4:2:0
Bit depth : 8 bits
Scan type : Progressive
Bits/(Pixel*Frame) : 0.411
Stream size : 15.7 GiB (83%)
Language : English
Default : Yes
Forced : No
Audio #1
ID : 2
Format : AC-3
Format/Info : Audio Coding 3
Mode extension : CM (complete main)
Format settings, Endianness : Big
Codec ID : A_AC3
Duration : 1h 50mn
Bit rate mode : Constant
Bit rate : 448 Kbps
Channel(s) : 6 channels
Channel positions : Front: L C R, Side: L R, LFE
Sampling rate : 48.0 KHz
Frame rate : 31.250 fps (1536 spf)
Compression mode : Lossy
Stream size : 353 MiB (2%)
Title : MVO [Paradox & Omskbird records]
Language : Russian
Default : Yes
Forced : No
Audio #2
ID : 3
Format : DTS
Format/Info : Digital Theater Systems
Format profile : MA / Core
Mode : 16
Format settings, Endianness : Big
Codec ID : A_DTS
Duration : 1h 50mn
Bit rate mode : Variable / Constant
Bit rate : 3 721 Kbps / 1 509 Kbps
Channel(s) : 6 channels
Channel positions : Front: L C R, Side: L R, LFE
Sampling rate : 48.0 KHz
Frame rate : 93.750 fps (512 spf)
Bit depth : 24 bits
Compression mode : Lossless / Lossy
Stream size : 2.86 GiB (15%)
Title : Original
Language : English
Default : No
Forced : No
Text #1
ID : 4
Format : UTF-8
Codec ID : S_TEXT/UTF8
Codec ID/Info : UTF-8 Plain Text
Duration : 1h 43mn
Bit rate : 37 bps
Count of elements : 851
Stream size : 28.2 KiB (0%)
Title : Full
Language : English
Default : No
Forced : No
Text #2
ID : 5
Format : UTF-8
Codec ID : S_TEXT/UTF8
Codec ID/Info : UTF-8 Plain Text
Duration : 1h 43mn
Bit rate : 39 bps
Count of elements : 969
Stream size : 30.2 KiB (0%)
Title : SDH
Language : English
Default : No
Forced : No
Menu
00:00:00.000 : en:00:00:00.000
00:06:00.735 : en:00:06:00.735
00:14:12.602 : en:00:14:12.602
00:19:39.220 : en:00:19:39.220
00:28:00.888 : en:00:28:00.888
00:33:35.388 : en:00:33:35.388
00:39:02.215 : en:00:39:02.215
00:45:32.647 : en:00:45:32.647
00:53:42.386 : en:00:53:42.386
00:59:32.986 : en:00:59:32.986
01:10:34.772 : en:01:10:34.772
01:21:52.324 : en:01:21:52.324
01:24:50.210 : en:01:24:50.210
01:29:47.299 : en:01:29:47.299
01:41:19.365 : en:01:41:19.365
01:44:57.875 : en:01:44:57.875

Скриншоты

Релиз от: Автор релиза:
[Профиль] [ЛС]
Показать сообщения:    

Текущее время: Сегодня 08:31

Часовой пояс: GMT



Вы не можете начинать темы
Вы не можете отвечать на сообщения
Вы не можете редактировать свои сообщения
Вы не можете удалять свои сообщения
Вы не можете голосовать в опросах
Вы не можете прикреплять файлы к сообщениям
Вы не можете скачивать файлы