Дуэль / The Duel (2016) WEB-DL 720p | L2

 
Автор Сообщение

достали все ®

Пол:

Стаж: 1 год 8 месяцев

Сообщений: 6542



Награды: 12 (Подробнее)

Mega Releaser 3 (Количество: 1) Top Releaser 2 (Количество: 1) Mega Seeder 2 (Количество: 1)
Торрент-статистика

Создавать темы 02-Июл-2016 10:40

[Цитировать]

Информация о фильме
Название: Дуэль
Оригинальное название: The Duel
Год выхода: 2016
Жанр: Драма, вестерн
Режиссер: Киран Дарси-Смит
В ролях: Лиам Хемсворт, Эмори Коэн, Вуди Харрельсон, Алиси Брага, Уильям Сэдлер, Бенедикт Сэмюэл, Сью-Линн Ансари, Рафаэль Сбардж, Кристофер Берри, Хосе Суньига
О фильме:
Фильм расскажет о техасском рейнджере Дэвиде, которого заслали во фронтир с целью расследования серии убийств. На месте ему предстоит познакомиться с Авраамом — проповедником, держащим в паническом страхе всю округу.

Страна: США
Студия: 26 Films, Atomic Entertainment (II), Bron Capital Partners, Crystal Wealth, Lionsgate Premiere, Mandeville Films, Media House Capital
Продолжительность: 01:50:09
Перевод: Любительский двухголосый (закадровый) | RecentFilms
Файл
Кодек: MPEG-4
Качество: WEB-DL 720p
Видео: 1280x530, 3963 Kbit/s, 23.976 fps
Звук:
Аудио #01: 48 kHz, AC3, 2.0, 384 Kbps | Любительский двухголосый (закадровый), RecentFilms |
Аудио #02: 48 kHz, AC3, 5.1, 384 kbps | Оригинал |
Субтитры: Английские
Автор релиза:

MI

General
Unique ID : 170950584485393672655587951770708940861 (0x809BE28D340E0C269A7E32649407183D)
Complete name : F:VideoThe.Duel.2016.WEB-DL.720p.ExKinoRay.mkv
Format : Matroska
Format version : Version 4 / Version 2
File size : 3.64 GiB
Duration : 1h 50mn
Overall bit rate : 4 733 Kbps
Movie name : The.Duel.2016.WEB-DL.720p.ExKinoRay
Encoded date : UTC 2016-07-02 06:27:30
Writing application : mkvmerge v8.3.0 ('Over the Horizon') 64bit
Writing library : libebml v1.3.1 + libmatroska v1.4.2
Video
ID : 1
Format : AVC
Format/Info : Advanced Video Codec
Format profile : Main@L3.1
Format settings, CABAC : No
Format settings, ReFrames : 2 frames
Codec ID : V_MPEG4/ISO/AVC
Duration : 1h 50mn
Bit rate : 3 963 Kbps
Width : 1 280 pixels
Height : 530 pixels
Display aspect ratio : 2.40:1
Frame rate mode : Constant
Frame rate : 23.976 fps
Color space : YUV
Chroma subsampling : 4:2:0
Bit depth : 8 bits
Scan type : Progressive
Bits/(Pixel*Frame) : 0.244
Stream size : 3.05 GiB (84%)
Language : English
Default : Yes
Forced : No
Color range : Limited
Color primaries : BT.709
Transfer characteristics : BT.709
Matrix coefficients : BT.709
Audio #1
ID : 2
Format : AC-3
Format/Info : Audio Coding 3
Mode extension : CM (complete main)
Format settings, Endianness : Big
Codec ID : A_AC3
Duration : 1h 50mn
Bit rate mode : Constant
Bit rate : 384 Kbps
Channel(s) : 2 channels
Channel positions : Front: L R
Sampling rate : 48.0 KHz
Frame rate : 31.250 fps (1536 spf)
Compression mode : Lossy
Delay relative to video : 1s 0ms
Stream size : 302 MiB (8%)
Title : DVO [RecentFilms]
Language : Russian
Default : Yes
Forced : No
Audio #2
ID : 3
Format : AC-3
Format/Info : Audio Coding 3
Mode extension : CM (complete main)
Format settings, Endianness : Big
Codec ID : A_AC3
Duration : 1h 50mn
Bit rate mode : Constant
Bit rate : 384 Kbps
Channel(s) : 6 channels
Channel positions : Front: L C R, Side: L R, LFE
Sampling rate : 48.0 KHz
Frame rate : 31.250 fps (1536 spf)
Compression mode : Lossy
Stream size : 303 MiB (8%)
Title : Original
Language : English
Default : No
Forced : No
Text
ID : 4
Format : UTF-8
Codec ID : S_TEXT/UTF8
Codec ID/Info : UTF-8 Plain Text
Duration : 1h 41mn
Bit rate : 39 bps
Count of elements : 919
Stream size : 29.8 KiB (0%)
Language : English
Default : No
Forced : No
Menu
00:00:00.000 : en:1
00:06:00.000 : en:2
00:15:04.000 : en:3
00:25:16.000 : en:4
00:34:31.000 : en:5
00:45:33.000 : en:6
00:53:43.000 : en:7
01:03:05.000 : en:8
01:12:38.000 : en:9
01:21:51.000 : en:10
01:32:25.000 : en:11
01:45:36.000 : en:12

Скриншоты

[Профиль] [ЛС]
Показать сообщения:    

Текущее время: Сегодня 10:33

Часовой пояс: GMT



Вы не можете начинать темы
Вы не можете отвечать на сообщения
Вы не можете редактировать свои сообщения
Вы не можете удалять свои сообщения
Вы не можете голосовать в опросах
Вы не можете прикреплять файлы к сообщениям
Вы не можете скачивать файлы