Дуэль / Duel (1971) BDRip 720p | P, A

 
Автор Сообщение

sergej644 ®

Пол:

Стаж: 4 года 11 месяцев

Сообщений: 6042

Откуда: Soviet Union



Награды: Нет

Торрент-статистика

Создавать темы 02-Ноя-2014 13:41

[Цитировать]

- Информация о фильме
Русское название: Дуэль
Оригинальное название: Duel
Год выхода: 1971
Жанр: боевик, триллер, детектив
Режиссер: Стивен Спилберг
Выпущено: США
Продолжительность: 01:29:14
Перевод: Профессиональный (Многоголосый закадровый), Авторский (В.Горчаков)
В ролях: Деннис Уивер, Джэклин Скотт, Эдди Файрстоун, Лу Фриззелл, Джин Динарски, Люсиль Бенсон, Тим Херберт, Чарльз Сил, Ширли О’Хара, Александр Локвуд, Эми Дугласс, Дик Уиттингтон, Кэри Лофтин, Дейл Ван Сикел и др.-Сюжет фильма
Сюжет фильма развивается на бескрайней дороге через пустыню, где начинается смертельная гонка-дуэль. За легковой автомашиной не просто гонится бензовоз с невидимым водителем, норовя ее уничтожить, а как будто некий рок, как в греческой трагедии, неотступно преследует человека.-Файл
Качество: BDRip 720p (исходник Blu-ray Disc Remux)
Видео: 1280x694, 5734 Кбит/сек, 23,976 кадр/сек, AVC, x264, High@L4.1, 1.85:1, 0.269 Бит/[Пиксели*Кадры]
Аудио 1: AC-3, 384 Кбит/сек, 6 канала(ов), 48,0 КГц - Многоголосый закадровый / Русский | +1000ms*
Аудио 2: AC-3, 448 Кбит/сек, 6 канала(ов), 48,0 КГц - Одноголосый закадровый, В.Горчаков / Русский
Аудио 3: AC-3, 448 Кбит/сек, 6 канала(ов), 48,0 КГц - Оригинал / Английский
Субтитры: Русские | Полные, Английские | Полные
Форсированные субтитры: Нет
Чаптеры (Главы): Есть--

MediaInfo

Format : Matroska
Format version : Version 2
File size : 4.37 GiB
Duration : 1h 29mn
Overall bit rate : 7 017 Kbps
Movie name : Дуэль.(1971).BDRip.720p.[envy]
Encoded date : UTC 2014-11-02 06:55:07
Writing application : mkvmerge v5.8.0 ('No Sleep / Pillow') built on Sep 2 2012 15:37:04
Writing library : libebml v1.2.3 + libmatroska v1.3.0
Video
ID : 1
Format : AVC
Format/Info : Advanced Video Codec
Format profile : High@L4.1
Format settings, CABAC : Yes
Format settings, ReFrames : 9 frames
Codec ID : V_MPEG4/ISO/AVC
Duration : 1h 29mn
Bit rate : 5 734 Kbps
Width : 1 280 pixels
Height : 694 pixels
Display aspect ratio : 1.85:1
Frame rate mode : Constant
Frame rate : 23.976 fps
Color space : YUV
Chroma subsampling : 4:2:0
Bit depth : 8 bits
Scan type : Progressive
Bits/(Pixel*Frame) : 0.269
Stream size : 3.49 GiB (80%)
Title : Дуэль.(1971).BDRip.720p.[envy]
Writing library : x264 core 142 r2479 dd79a61
Encoding settings : cabac=1 / ref=9 / deblock=1:-2:-2 / analyse=0x3:0x113 / me=umh / subme=11 / psy=1 / psy_rd=1.00:0.00 / mixed_ref=1 / me_range=32 / chroma_me=1 / trellis=2 / 8x8dct=1 / cqm=0 / deadzone=21,11 / fast_pskip=0 / chroma_qp_offset=-2 / threads=12 / lookahead_threads=1 / sliced_threads=0 / nr=0 / decimate=1 / interlaced=0 / bluray_compat=0 / constrained_intra=0 / bframes=5 / b_pyramid=2 / b_adapt=2 / b_bias=0 / direct=3 / weightb=1 / open_gop=0 / weightp=2 / keyint=240 / keyint_min=23 / scenecut=40 / intra_refresh=0 / rc=2pass / mbtree=0 / bitrate=5734 / ratetol=2.0 / qcomp=0.60 / qpmin=0 / qpmax=69 / qpstep=4 / cplxblur=20.0 / qblur=0.5 / ip_ratio=1.40 / pb_ratio=1.30 / aq=2:0.90
Language : English
Default : Yes
Forced : No
Audio #1
ID : 2
Format : AC-3
Format/Info : Audio Coding 3
Mode extension : CM (complete main)
Format settings, Endianness : Big
Codec ID : A_AC3
Duration : 1h 29mn
Bit rate mode : Constant
Bit rate : 384 Kbps
Channel(s) : 6 channels
Channel positions : Front: L C R, Side: L R, LFE
Sampling rate : 48.0 KHz
Bit depth : 16 bits
Compression mode : Lossy
Delay relative to video : 1s 0ms
Stream size : 245 MiB (5%)
Title : MVO
Language : Russian
Default : Yes
Forced : No
Audio #2
ID : 3
Format : AC-3
Format/Info : Audio Coding 3
Mode extension : CM (complete main)
Format settings, Endianness : Big
Codec ID : A_AC3
Duration : 1h 29mn
Bit rate mode : Constant
Bit rate : 448 Kbps
Channel(s) : 6 channels
Channel positions : Front: L C R, Side: L R, LFE
Sampling rate : 48.0 KHz
Bit depth : 16 bits
Compression mode : Lossy
Stream size : 286 MiB (6%)
Title : Gorchakov
Language : Russian
Default : No
Forced : No
Audio #3
ID : 4
Format : AC-3
Format/Info : Audio Coding 3
Mode extension : CM (complete main)
Format settings, Endianness : Big
Codec ID : A_AC3
Duration : 1h 29mn
Bit rate mode : Constant
Bit rate : 448 Kbps
Channel(s) : 6 channels
Channel positions : Front: L C R, Side: L R, LFE
Sampling rate : 48.0 KHz
Bit depth : 16 bits
Compression mode : Lossy
Stream size : 286 MiB (6%)
Title : Eng
Language : English
Default : No
Forced : No
Text #1
ID : 5
Format : UTF-8
Codec ID : S_TEXT/UTF8
Codec ID/Info : UTF-8 Plain Text
Title : full
Language : Russian
Default : No
Forced : No
Text #2
ID : 6
Format : UTF-8
Codec ID : S_TEXT/UTF8
Codec ID/Info : UTF-8 Plain Text
Title : full
Language : English
Default : No
Forced : No
Menu
00:00:00.000 : :Chapter 01
00:04:40.863 : :Chapter 02
00:09:03.542 : :Chapter 03
00:14:58.648 : :Chapter 04
00:18:53.215 : :Chapter 05
00:25:10.259 : :Chapter 06
00:29:07.204 : :Chapter 07
00:33:05.817 : :Chapter 08
00:39:11.975 : :Chapter 09
00:41:38.996 : :Chapter 10
00:43:42.328 : :Chapter 11
00:50:50.839 : :Chapter 12
00:55:35.916 : :Chapter 13
00:59:46.458 : :Chapter 14
01:03:12.997 : :Chapter 15
01:09:06.184 : :Chapter 16
01:16:28.917 : :Chapter 17
01:20:38.834 : :Chapter 18
01:24:12.089 : :Chapter 19
01:26:17.339 : :Chapter 20
--
[Профиль] [ЛС]
Показать сообщения:    

Текущее время: Сегодня 22:00

Часовой пояс: GMT



Вы не можете начинать темы
Вы не можете отвечать на сообщения
Вы не можете редактировать свои сообщения
Вы не можете удалять свои сообщения
Вы не можете голосовать в опросах
Вы не можете прикреплять файлы к сообщениям
Вы не можете скачивать файлы