Дуэль. Пушкинъ – Лермонтовъ (Денис Банников) [2014, Россия, фэнтези, драма, HDTV 1080i] + Original Rus

 
Автор Сообщение

TorrentFilm ®

Пол:

Стаж: 2 года

Сообщений: 7741



Награды: Нет

Торрент-статистика

Создавать темы 20-Апр-2015 00:03

[Цитировать]

Дуэль. Пушкинъ – Лермонтовъ Страна: Россия
Жанр: фэнтези, драма
Год выпуска: 2014
Продолжительность: 02:14:00
Перевод: Не требуется
Cубтитры: нет
Оригинальная аудиодорожка: русский
Режиссер: Денис Банников
В ролях: Александр Карпов, Геннадий Яковлев, Евгений Лазарев, Арнис Лицитис, Елена Соловьёва, Жанна Воробьева, Светлана Агафошина, Мария Баева, Вячеслав Невинный мл., Виталий Максимов
Описание: Выиграна Крымская война. Россией по-прежнему правит Николай I. На экране — Пушкин, Лермонтов, Бенкендорф, Вяземский, Гончарова, и даже Грибоедов, судьба которого в 1829 году сложилась иначе. Пушкин окончательно отошел от вольнодумства. Богат, хорошо издается, но все его главные произведения написаны уже давно. По-прежнему женат на Гончаровой. Создает заказанную двором «Историю Дома Романовых» — помпезное парадное произведение. Лермонтов одинок. Участвовал в бесчисленных дуэлях. В Крымской войне был серьезно ранен. Вышел в отставку в чине майора. Продолжает все это время писать стихи и поэмы, которые плохо издаются. Таковы исходные данные для этой исторической фантазии. Что представляет собой великий художник, который пережил свою эпоху? Что есть Гений в России? Что есть в ней Гражданин? Россия и мир. Художник и Власть. Порочный свет и чистые души. Высокие идеи и низкое лицемерие. Спасение или катастрофа. Это фильм о сегодняшнем дне.
Сэмпл: http://rusfolder.com/43402599
Кинопоиск: http://www.kinopoisk.ru/film/838908/
Тип релиза: HDTV 1080i
Контейнер: TS
Видео: AVC/H.264, 1920x1080 (16:9), 9367 Кбит/сек, 25.000 fps
Аудио 1: русский, MP2, 2ch, 48,0 КГц, 192 Кбит/сек
Аудио 2: русский, AC3, 6ch, 48,0 КГц, 448 Кбит/сек

MediaInfo

Общее
Идентификатор : 1 (0x1)
Полное имя : C:\Users\User\Desktop\Дуэль. Пушкинъ-Лермонтовъ.ts
Формат : MPEG-TS
Размер файла : 9,86 Гбайт
Продолжительность : 2 ч. 14 м.
Режим общего битрейта : Переменный
Общий поток : 10,5 Мбит/сек
Видео
Идентификатор : 3551 (0xDDF)
Идентификатор меню : 1 (0x1)
Формат : AVC
Формат/Информация : Advanced Video Codec
Профиль формата : Main@L4.0
Параметр CABAC формата : Да
Параметр ReFrames формата : 3 кадра
Идентификатор кодека : 27
Продолжительность : 2 ч. 14 м.
Битрейт : 9367 Кбит/сек
Ширина : 1920 пикселей
Высота : 1080 пикселей
Соотношение сторон : 16:9
Частота кадров : 25,000 кадров/сек
Стандарт вещания : Component
Цветовое пространство : YUV
Субдискретизация насыщенности : 4:2:0
Битовая глубина : 8 бит
Тип развёртки : Чересстрочная
Порядок развёртки : Верхнее поле первое
Бит/(Пиксели*Кадры) : 0.181
Размер потока : 8,77 Гбайт (89%)
Основные цвета : BT.709
Характеристики трансфера : BT.709
Коэффициенты матрицы : BT.709
colour_range : Limited
Аудио #1
Идентификатор : 3552 (0xDE0)
Идентификатор меню : 1 (0x1)
Формат : MPEG Audio
Версия формата : Version 1
Профиль формата : Layer 2
Идентификатор кодека : 3
Продолжительность : 2 ч. 14 м.
Вид битрейта : Постоянный
Битрейт : 192 Кбит/сек
Каналы : 2 канала
Частота : 48,0 КГц
Метод сжатия : С потерями
Размер потока : 184 Мбайт (2%)
Язык : Russian
Аудио #2
Идентификатор : 3553 (0xDE1)
Идентификатор меню : 1 (0x1)
Формат : AC-3
Формат/Информация : Audio Coding 3
Расширение режима : CM (complete main)
Параметр Endianness формата : Big
Идентификатор кодека : 6
Продолжительность : 2 ч. 14 м.
Вид битрейта : Постоянный
Битрейт : 448 Кбит/сек
Каналы : 6 каналов
Расположение каналов : Front: L C R, Side: L R, LFE
Частота : 48,0 КГц
Битовая глубина : 16 бит
Метод сжатия : С потерями
Размер потока : 429 Мбайт (4%)
Язык : Russian

Скриншот с названием фильма

Скриншоты

[Профиль] [ЛС]
Показать сообщения:    

Текущее время: Сегодня 00:50

Часовой пояс: GMT



Вы не можете начинать темы
Вы не можете отвечать на сообщения
Вы не можете редактировать свои сообщения
Вы не можете удалять свои сообщения
Вы не можете голосовать в опросах
Вы не можете прикреплять файлы к сообщениям
Вы не можете скачивать файлы