Душевная кухня / Soul Kitchen (Фатих Акин / Fatih Akin) [2009, Германия, Комедия, DVDRip] Dub

 
Автор Сообщение

TorrentFilm ®

Пол:

Стаж: 2 года

Сообщений: 7741



Награды: Нет

Торрент-статистика

Создавать темы 17-Июн-2015 17:24

[Цитировать]

Душевная кухня / Soul Kitchen
Страна: Германия
Жанр: Комедия
Год выпуска: 2009
Продолжительность: 01:39:32
Перевод: Профессиональный (дублированный)
Cубтитры: нет
Оригинальная аудиодорожка: нет
Режиссер: Фатих Акин / Fatih Akin
В ролях: Адам Боусдукс, Мориц Бляйбтрой, Бироль Унел, Анна Бедерке, Фелина Рогган, Лукас Грегорович, Дорка Гриллус, Вотан Вильке Мёринг, Демир Гёкгель, Моника Бляйбтрой
Описание: Зинос Казанзакис держит не слишком людный (чтобы не сказать медленно загибающийся) ресторанчик на окраине Гамбурга. Немногочисленные посетители довольствуются нехитрой стряпней его собственного приготовления и наизусть знают меню, состоящее из нескольких строк на одном листке. Тихая жизнь идет своим чередом, пока на голову Зиноса не сваливаются все 33 несчастья. Из тюрьмы в «увольнительные» начинает регулярно выходить его беспутный брат.
По наводке приятеля, мечтающего прибрать ресторанчик к рукам и превратить его в бордель, заявляется санитарная инспекция, а за ней налоговая полиция. И в довершении всех бед красавица-подружка бросает его и уезжает работать в Шанхай. Ситуация критическая, и выход может быть только один: пригласить супершеф-повара, сделать ресторан самым модным местом Гамбурга! А попутно решить проблемы в личной жизни.
Сэмпл: http://sendfile.su/1128150
Качество видео: DVDRip
Формат видео: AVI
Видео: XviD MPEG-4 Visual, 720 x 384 (1.875), 24.000 fps, 1 515 Kbps
Аудио: 48kHz, AC3, 5.1 (L R C LFE Ls Rs), 448 Kbps

MediaInfo

General
Complete name : /Volumes/Work HD/Torrents.ru/Soul Kitchen/SoulKitchen2009.DVDRip.avi
Format : AVI
Format/Info : Audio Video Interleave
File size : 1.37 GiB
Duration : 1h 39mn
Overall bit rate : 1 972 Kbps
Writing application : VirtualDubMod 1.5.10.2 (build 2540/release)
Writing library : VirtualDub build 32839/release
Video
ID : 0
Format : MPEG-4 Visual
Format profile : Advanced Simple@L5
Format settings, BVOP : 2
Format settings, QPel : No
Format settings, GMC : No warppoints
Format settings, Matrix : Custom
Codec ID : XVID
Codec ID/Hint : XviD
Duration : 1h 39mn
Bit rate : 1 515 Kbps
Width : 720 pixels
Height : 384 pixels
Display aspect ratio : 1.85:1
Frame rate : 24.000 fps
Color space : YUV
Chroma subsampling : 4:2:0
Bit depth : 8 bits
Scan type : Progressive
Compression mode : Lossy
Bits/(Pixel*Frame) : 0.228
Stream size : 1.05 GiB (77%)
Writing library : XviD 1.2.1 (UTC 2008-12-04)
Audio
ID : 1
Format : AC-3
Format/Info : Audio Coding 3
Mode extension : CM (complete main)
Format settings, Endianness : Big
Codec ID : 2000
Duration : 1h 39mn
Bit rate mode : Constant
Bit rate : 448 Kbps
Channel(s) : 6 channels
Channel positions : Front: L C R, Side: L R, LFE
Sampling rate : 48.0 KHz
Bit depth : 16 bits
Compression mode : Lossy
Delay relative to video : 20ms
Stream size : 319 MiB (23%)
Alignment : Split accross interleaves
Interleave, duration : 42 ms (1.00 video frame)
Interleave, preload duration : 500 ms

Скриншот c названием фильма

Скриншоты

[Профиль] [ЛС]

Создавать темы 06-Авг-2015 22:29 (спустя 1 месяц 19 дней)

Топик был перенесен из форума Фильмы до 2014 года в форум Фильмы до 2012 года
sergej644
 

Создавать темы 12-Июн-2016 08:49 (спустя 11 месяцев 24 дня)

Топик был перенесен из форума Фильмы 2011 года в форум Фильмы 2009 года
Russian Mafia
 
Показать сообщения:    

Текущее время: Сегодня 15:44

Часовой пояс: GMT



Вы не можете начинать темы
Вы не можете отвечать на сообщения
Вы не можете редактировать свои сообщения
Вы не можете удалять свои сообщения
Вы не можете голосовать в опросах
Вы не можете прикреплять файлы к сообщениям
Вы не можете скачивать файлы