Духless 2 (Роман Прыгунов) [2015 г., драма, DVDRip] [Лицензия]

 
Автор Сообщение

AleksSin ®

Пол:

Стаж: 5 лет 11 месяцев

Сообщений: 218



Награды: 4 (Подробнее)

Mega Seeder 3 (Количество: 1) Mega Seeder 2 (Количество: 1) Mega Seeder 1 (Количество: 1)
Торрент-статистика

Создавать темы 03-Апр-2015 05:24

[Цитировать]

Духless 2
Год выпуска: 2015
Страна: Россия
Жанр: драма
Продолжительность: 01:47:03
Перевод: Не требуется [Лицензия]
Субтитры: нет
Режиссер: Роман Прыгунов
В ролях: Данила Козловский, Мария Андреева, Милош Бикович, Павел Ворожцов, Сергей Бурунов, Владимир Симонов, Доминик Пинон, Александра Бортич, Яна Набокова, Анна Александрова, Лев Прыгунов
Описание: Он отказался от всего, что так когда-то ценил — светской жизни, успешной карьеры, роскошного пентхауса. Теперь его стихия — океан. Каждый день он рассекает на серфе теплые волны, омывающие остров Бали. Но невозможно забыть ритм большого города. Случайное знакомство возвращает его в самое сердце современной столицы — высокие технологии, сумасшедшие сделки, смертельный риск и прежняя любовь, которая больше не с ним.

Качество: DVDRip (Исх. DVD9)
Формат: AVI
Видео кодек: XviD
Аудио кодек: AC3
Видео: 720x304 (2.37:1), 25 fps, XviD build 73 ~2279 kbps avg, 0.42 bit/pixel
Аудио: 48 kHz, AC3 Dolby Digital, 3/2 (L,C,R,l,r) + LFE ch, ~448.00 kbps avg

MediaInfo

Общее
Полное имя : S:ФильмыДухless 2. 2015. DVDRip. 2.05 (AleksSin).avi
Формат : AVI
Формат/Информация : Audio Video Interleave
Профиль формата : OpenDML
Размер файла : 2,05 Гбайт
Продолжительность : 1 ч. 47 м.
Общий поток : 2739 Кбит/сек
Программа кодирования : VirtualDubMod 1.5.10.3 | www.virtualdub-fr.org || (build 2550/release)
Библиотека кодирования : VirtualDubMod build 2550/release
Видео
Идентификатор : 0
Формат : MPEG-4 Visual
Профиль формата : Advanced Simple@L5
Параметр BVOP формата : 1
Параметр QPel формата : Нет
Параметр GMC формата : Без точки перехода
Параметр матрицы формата : Выборочная
Идентификатор кодека : XVID
Идентификатор кодека/Подсказка : XviD
Продолжительность : 1 ч. 47 м.
Битрейт : 2279 Кбит/сек
Ширина : 720 пикс.
Высота : 304 пикс.
Соотношение сторон : 2,35:1
Частота кадров : 25,000 кадр/сек
Цветовое пространство : YUV
Подвыборка цветности : 4:2:0
Битовая глубина : 8 бит
Тип развёртки : Прогрессивная
Метод сжатия : С потерями
Бит/(Пиксели*Кадры) : 0.416
Размер потока : 1,70 Гбайт (83%)
Библиотека кодирования : XviD 73
Аудио
Идентификатор : 1
Формат : AC-3
Формат/Информация : Audio Coding 3
Расширение режима : CM (complete main)
Идентификатор кодека : 2000
Продолжительность : 1 ч. 47 м.
Вид битрейта : Постоянный
Битрейт : 448 Кбит/сек
Каналы : 6 каналов
Расположение каналов : Front: L C R, Side: L R, LFE
Частота : 48,0 КГц
Битовая глубина : 16 бит
Метод сжатия : С потерями
Размер потока : 343 Мбайт (16%)
Выравнивание : Разделение по промежуткам
Продолжительность промежутка : 40 мс. (1,00 видеокадр)
Время предзагрузки промежутка : 500 ms

Скриншоты

[Профиль] [ЛС]
Показать сообщения:    

Текущее время: Сегодня 09:53

Часовой пояс: GMT



Вы не можете начинать темы
Вы не можете отвечать на сообщения
Вы не можете редактировать свои сообщения
Вы не можете удалять свои сообщения
Вы не можете голосовать в опросах
Вы не можете прикреплять файлы к сообщениям
Вы не можете скачивать файлы