ДухLess 2 (Роман Прыгунов)[2015,Боевик, драма, экранизация] BDRip 1080p

 
Автор Сообщение

sergej644 ®

Пол:

Стаж: 4 года 11 месяцев

Сообщений: 6046

Откуда: Soviet Union



Награды: Нет

Торрент-статистика

Создавать темы 27-Янв-2015 04:54

[Цитировать]

ДухLessГод выпуска: 2012
Страна: Россия
Жанр: драма
Продолжительность: 01:45:24
Перевод: Не требуется
Режиссер: Роман Прыгунов В ролях: Данила Козловский (Максим), Артем Михалков (Вадим, друг Максима), Михаил Ефремов (Кондратов), Мария Андреева (Юля), Артур Смольянинов (Авдей), Мария Кожевникова, Сергей Белоголовцев (Володя Гулякин), Игорь Войнаровский (Пархоменко), Михаил Люлинецкий (банкир из провинции), Михаил Мухтасипов, Илья Рыбаков, Евгений Шиманович (сын олигарха, наркоман)
Описание: Главный герой фильма - 29-летний топ-менеджер крупного международного банка по имени Макс. Он уверен, что жизнь удалась, ведь у него есть то, о чём многие не могут даже и мечтать: дорогая машина, пентхаус и вечеринки. Свою жизнь Максим тратит на зарабатывание денег, а деньги - на ночные клубы, шикарных девушек, кокаин и прочие атрибуты, так называемой, гламурной жизни. Но в какой-то момент к герою приходит осознание того, что с его жизнью что-то не так. И его мир начинает рушиться, подобно карточному домику. В картине говорится о переоценке себя и жизни вокруг, о преодолении внутреннего кризиса.

Качество: BDRip
Контейнер: MKV
Видео: AVC, 1920x816 (2.35:1), 10351 kbps, 24 fps, 0,275 bpp
Аудио: русский /; AC3 /; 5.1 /; 48 kHz /; 448 kbps /; 16 bit
Навигация по главам: есть

x264

x264 [info]: frame I:953 Avg QP:18.46 size:146188
x264 [info]: frame P:36020 Avg QP:19.66 size: 71638
x264 [info]: frame B:114819 Avg QP:22.10 size: 47509
x264 [info]: consecutive B-frames: 3.7% 5.0% 10.5% 15.9% 11.0% 41.5% 5.6% 0.7% 3.8% 2.2%

Media Info

General
Unique ID : 207397661423034806157179256965573486041 (0x9C07562EE4F35E4A8B2B38E73A99A5D9)
Complete name : E:TorrentДухLess (2012)BDRip-F.HD.mkv
Format : Matroska
Format version : Version 2
File size : 7.94 GiB
Duration : 1h 45mn
Overall bit rate : 10.8 Mbps
Encoded date : UTC 2012-11-09 06:38:50
Writing application : mkvmerge v5.8.0 ('No Sleep / Pillow') built on Sep 2 2012 15:37:04
Writing library : libebml v1.2.3 + libmatroska v1.3.0
Video
ID : 1
Format : AVC
Format/Info : Advanced Video Codec
Format profile : High@L4.1
Format settings, CABAC : Yes
Format settings, ReFrames : 5 frames
Codec ID : V_MPEG4/ISO/AVC
Duration : 1h 45mn
Bit rate : 10.4 Mbps
Width : 1 920 pixels
Height : 816 pixels
Display aspect ratio : 2.35:1
Frame rate : 24.000 fps
Color space : YUV
Chroma subsampling : 4:2:0
Bit depth : 8 bits
Scan type : Progressive
Bits/(Pixel*Frame) : 0.275
Stream size : 7.46 GiB (94%)
Writing library : x264 core 128 r2216 198a7ea
Encoding settings : cabac=1 / ref=5 / deblock=1:-3:-3 / analyse=0x3:0x113 / me=umh / subme=10 / psy=1 / psy_rd=0.80:0.15 / mixed_ref=1 / me_range=32 / chroma_me=1 / trellis=2 / 8x8dct=1 / cqm=0 / deadzone=21,11 / fast_pskip=0 / chroma_qp_offset=1 / threads=6 / lookahead_threads=1 / sliced_threads=0 / nr=0 / decimate=1 / interlaced=0 / bluray_compat=0 / constrained_intra=0 / bframes=9 / b_pyramid=2 / b_adapt=2 / b_bias=0 / direct=3 / weightb=1 / open_gop=0 / weightp=2 / keyint=240 / keyint_min=24 / scenecut=40 / intra_refresh=0 / rc=2pass / mbtree=0 / bitrate=10351 / ratetol=1.0 / qcomp=0.80 / qpmin=5 / qpmax=51 / qpstep=4 / cplxblur=20.0 / qblur=0.5 / ip_ratio=1.25 / pb_ratio=1.25 / aq=1:0.70
Language : English
Default : Yes
Forced : No
Color primaries : BT.709-5, BT.1361, IEC 61966-2-4, SMPTE RP177
Transfer characteristics : BT.709-5, BT.1361
Matrix coefficients : BT.709-5, BT.1361, IEC 61966-2-4 709, SMPTE RP177
Audio
ID : 2
Format : AC-3
Format/Info : Audio Coding 3
Mode extension : CM (complete main)
Codec ID : A_AC3
Duration : 1h 45mn
Bit rate mode : Constant
Bit rate : 448 Kbps
Channel(s) : 6 channels
Channel positions : Front: L C R, Side: L R, LFE
Sampling rate : 48.0 KHz
Bit depth : 16 bits
Compression mode : Lossy
Stream size : 338 MiB (4%)
Language : Russian
Default : Yes
Forced : No
Menu
00:00:00.000 : en:Chapter 01
00:10:16.666 : en:Chapter 02
00:21:17.750 : en:Chapter 03
00:38:58.500 : en:Chapter 04
00:52:55.250 : en:Chapter 05
01:04:04.208 : en:Chapter 06
01:19:12.708 : en:Chapter 07
01:28:17.083 : en:Chapter 08

Знаете ли Вы, что...

В перерыве между съёмками исполнитель главной роли Данила Козловский сломал руку на спектакле в Санкт-Петербурге. Продюсеры и съёмочная группа были в ужасе, ведь предстоял последний тяжелый блок съёмок в интерьерах: клубы, танцы, эротические сцены. Но актёр не просто приехал вовремя в Москву, но и сыграл все эти сцены (две недели по 15 часов) с гипсом на руке так, что этого даже невозможно заметить на экране.

Скриншоты

--
[Профиль] [ЛС]
Показать сообщения:    

Текущее время: Сегодня 13:50

Часовой пояс: GMT



Вы не можете начинать темы
Вы не можете отвечать на сообщения
Вы не можете редактировать свои сообщения
Вы не можете удалять свои сообщения
Вы не можете голосовать в опросах
Вы не можете прикреплять файлы к сообщениям
Вы не можете скачивать файлы