Духless (Роман Прыгунов) [2012, Россия, драма, BDRip 720p] Original Rus

 
Автор Сообщение

TorrentFilm ®

Пол:

Стаж: 2 года

Сообщений: 7741



Награды: Нет

Торрент-статистика

Создавать темы 01-Янв-2016 00:09

[Цитировать]

Духless
Страна: Россия
Жанр: драма
Год выпуска: 2012
Продолжительность: 01:45:24
Cубтитры: нет
Оригинальная аудиодорожка: русский
Режиссер: Роман Прыгунов
В ролях: Данила Козловский, Артем Михалков, Михаил Ефремов, Мария Андреева, Артур Смольянинов, Мария Кожевникова, Сергей Белоголовцев, Игорь Войнаровский, Михаил Люлинецкий, Михаил Мухтасипов
Описание: Главный герой фильма — 29-летний топ-менеджер крупного международного банка по имени Макс. Он уверен, что жизнь удалась, ведь у него есть то, о чём многие не могут даже и мечтать: дорогая машина, пентхаус и вечеринки. Свою жизнь Максим тратит на зарабатывание денег, а деньги — на ночные клубы, шикарных девушек, кокаин и прочие атрибуты так называемой `гламурной` жизни. Но в какой-то момент к герою приходит осознание того, что с его жизнью что-то не так. И его мир начинает рушиться, подобно карточному домику. В картине говорится о переоценке себя и жизни вокруг, о преодолении внутреннего кризиса.
Запрещено к просмотру лицам до 18 лет
Тип релиза: BDRip 720p
Контейнер: MKV
Видео: 8300 kb/s, h264 (High), yuv420p, 1280x544 (2.35:1), PAR 1:1 DAR 40:17, 24 fps, 24 tbr, 1k tbn, 48 tbc
Аудио: 640 kb/s, ac3, 48000 Hz, 5.1, s16, rus
Оглавление: есть
Сэмпл

MediaInfo

Complete name : /media/share0/DuhLess.mkv
Format : Matroska
Format version : Version 2
File size : 6.73 GiB
Duration : 1h 45mn
Overall bit rate : 9 134 Kbps
Movie name : Dukhless (2012) BDRip [720p] / Release by HQ-ViDEO
Encoded date : UTC 2012-11-26 12:28:18
Writing application : mkvmerge v5.6.0 ('Kenya Kane') built on May 27 2012 16:44:04
Writing library : libebml v1.2.3 + libmatroska v1.3.0
Video
ID : 1
Format : AVC
Format/Info : Advanced Video Codec
Format profile : High@L4.1
Format settings, CABAC : Yes
Format settings, ReFrames : 11 frames
Codec ID : V_MPEG4/ISO/AVC
Duration : 1h 45mn
Bit rate : 8 312 Kbps
Width : 1 280 pixels
Height : 544 pixels
Display aspect ratio : 2.35:1
Frame rate : 24.000 fps
Color space : YUV
Chroma subsampling : 4:2:0
Bit depth : 8 bits
Scan type : Progressive
Bits/(Pixel*Frame) : 0.497
Stream size : 6.12 GiB (91%)
Title : Encode by EbP
Language : Russian
Default : Yes
Forced : No
Audio
ID : 2
Format : AC-3
Format/Info : Audio Coding 3
Mode extension : CM (complete main)
Format settings, Endianness : Big
Codec ID : A_AC3
Duration : 1h 45mn
Bit rate mode : Constant
Bit rate : 640 Kbps
Channel(s) : 6 channels
Channel positions : Front: L C R, Side: L R, LFE
Sampling rate : 48.0 KHz
Bit depth : 16 bits
Compression mode : Lossy
Stream size : 483 MiB (7%)
Title : AC3 5.1 @ 640 Kbps
Language : Russian
Default : Yes
Forced : No
Menu
00:00:00.000 : en:00:00:00.000
00:10:16.667 : en:00:10:16.667
00:21:17.750 : en:00:21:17.750
00:38:58.500 : en:00:38:58.500
00:52:55.250 : en:00:52:55.250
01:04:04.208 : en:01:04:04.208
01:19:12.708 : en:01:19:12.708
01:28:17.083 : en:01:28:17.083

Скриншот с названием

Скриншоты

[Профиль] [ЛС]
Показать сообщения:    

Текущее время: Сегодня 13:03

Часовой пояс: GMT



Вы не можете начинать темы
Вы не можете отвечать на сообщения
Вы не можете редактировать свои сообщения
Вы не можете удалять свои сообщения
Вы не можете голосовать в опросах
Вы не можете прикреплять файлы к сообщениям
Вы не можете скачивать файлы