Дух Сент-Луиса / The Spirit of St. Louis (1957) WEB-DL 1080p | A

 
Автор Сообщение

Russian Mafia ®

Пол:

Стаж: 1 год 8 месяцев

Сообщений: 4257



Награды: 10 (Подробнее)

За внесенный вклад в развитие сайта (Количество: 1) Mega Seeder 3 (Количество: 1) Mega Seeder 4 (Количество: 1)
Торрент-статистика

Создавать темы 15-Окт-2016 16:16

[Цитировать]

«The Story Behind the Story of Lindbergh's Incredible Flight to Paris!»
Информация о фильме
Название: Дух Сент-Луиса
Оригинальное название: The Spirit of St. Louis
Год выхода: 1957
Жанр: Драма, приключения, биография, история
Режиссер: Билли Уайлдер
В ролях: Джеймс Стюарт, Мюррэй Хэмилтон, Патриция Смит, Бартлетт Робинсон, Марк Коннелли, Артур Спэйс, Чарльз Уоттс, Эрвилль Алдерсон, Грифф Барнетт, Джимми Бейтс, Пол Бирч, Шила Бонд, Юджин Борден, Пол Бринегар, Роберт Бертон, Джон Карлайл, Вирджиния Кристин, Роберт Корнтуэйт, Джек Дэйли, Ричард Дикон, Рой Гордон, Даббс Грир, Олин Ховлин, Джонни Ли, Нельсон Ли, Херберт Литтон, Морис Мэнсон, Дэвид МакМахон, Гордон Митчелл, Энн Моррисон, Сид Сэйлор, Аарон Спеллинг, Макс Вагнер, Рэй Уолкер, Хэрлан Варде, Роберт Уильямс, Карлтон Янг
О фильме:
Работая авиапочтальоном, отважный пилот мечтал в одиночку перелететь через Атлантику. До него этого не делал никто. Для осуществления своей мечты он ищет спонсоров, и после больших трудов находит сочувствующую группу в Сент-Луисе, штат Миссури. По его заказу для полета строят специальный самолет, получивший название «Дух Сент-Луиса». В день вылета из Нью-Йорка Линдберг вынужден был долго ждать, пока кончится дождь…

Страна: США
Студия: Billy Wilder Productions Inc., Leland Hayward Productions, Warner Bros. Pictures
Продолжительность: 02:15:05
Перевод: Авторский (одноголосый, закадровый)[Живов] + Авторский (одноголосый, закадровый)[Либергал]
Файл
Качество: WEB-DL 1080p
Формат: MKV
Кодек: MPEG-4 AVC
Видео: 1920x1080 (16:9), 23,976 fps, MPEG-4 AVC ~ 14,5 Мbps avg, 0.292 bit/pixel
Аудио: AC3, 48 kHz, 2 ch, ~192.00 kbps avg | русский | Авторский (одноголосый, закадровый)[Живов]
Аудио: AC3, 48 kHz, 2 ch, ~192.00 kbps avg | русский | Авторский (одноголосый, закадровый)[Либергал]
Аудио: E-AC-3, 48 kHz, 2 ch, ~224.00 kbps avg | английский | Оригинал
Субтитры: Английские
Семпл

Инфо-файл

Общее
Уникальный идентификатор : 203859600739580810373133575319320100273 (0x995DEE52D6B61BBC81A0495759C97DB1)
Полное имя : D:The.Spirit.of.St..Louis.1957.1080p.WEB-DL.mkv
Формат : Matroska
Версия формата : Version 4 / Version 2
Размер файла : 14,5 Гбайт
Продолжительность : 2 ч. 15 м.
Режим общего битрейта : Переменный
Общий поток : 15,4 Мбит/сек
Дата кодирования : UTC 2016-10-15 08:15:44
Программа кодирования : mkvmerge v6.2.0 ('Promised Land') built on Apr 28 2013 12:22:01
Библиотека кодирования : libebml v1.3.0 + libmatroska v1.4.0
Видео
Идентификатор : 1
Формат : AVC
Формат/Информация : Advanced Video Codec
Профиль формата : High@L4
Параметр CABAC формата : Да
Параметр ReFrames формата : 4 кадра
Идентификатор кодека : V_MPEG4/ISO/AVC
Продолжительность : 2 ч. 15 м.
Вид битрейта : Переменный
Битрейт : 14,5 Мбит/сек
Максимальный битрейт : 15,0 Мбит/сек
Ширина : 1920 пикселей
Высота : 1080 пикселей
Соотношение сторон : 16:9
Режим частоты кадров : Постоянный
Частота кадров : 23,976 кадра/сек
Цветовое пространство : YUV
Субдискретизация насыщенности : 4:2:0
Битовая глубина : 8 бит
Тип развёртки : Прогрессивная
Бит/(Пиксели*Кадры) : 0.292
Размер потока : 13,7 Гбайт (94%)
Библиотека кодирования : x264 core 148 r2623 d5b2374
Настройки программы : cabac=1 / ref=4 / deblock=1:-1:-1 / analyse=0x3:0x133 / me=umh / subme=9 / psy=1 / psy_rd=1.00:0.15 / mixed_ref=1 / me_range=24 / chroma_me=1 / trellis=2 / 8x8dct=1 / cqm=0 / deadzone=21,11 / fast_pskip=1 / chroma_qp_offset=-3 / threads=34 / lookahead_threads=5 / sliced_threads=0 / nr=150 / decimate=1 / interlaced=0 / bluray_compat=0 / constrained_intra=0 / bframes=8 / b_pyramid=2 / b_adapt=2 / b_bias=0 / direct=3 / weightb=1 / open_gop=0 / weightp=2 / keyint=120 / keyint_min=61 / scenecut=0 / intra_refresh=0 / rc_lookahead=120 / rc=crf / mbtree=1 / crf=18.0 / qcomp=0.60 / qpmin=0 / qpmax=69 / qpstep=4 / vbv_maxrate=15000 / vbv_bufsize=31250 / crf_max=0.0 / nal_hrd=vbr / filler=0 / ip_ratio=1.40 / aq=3:1.00
Default : Да
Forced : Нет
Цветовой диапазон : Limited
Основные цвета : BT.709
Характеристики трансфера : BT.709
Коэффициенты матрицы : BT.709
Аудио #1
Идентификатор : 2
Формат : AC-3
Формат/Информация : Audio Coding 3
Расширение режима : CM (complete main)
Параметр Endianness формата : Big
Идентификатор кодека : A_AC3
Продолжительность : 2 ч. 15 м.
Вид битрейта : Постоянный
Битрейт : 192 Кбит/сек
Каналы : 2 канала
Расположение каналов : Front: L R
Частота : 48,0 КГц
Метод сжатия : С потерями
Размер потока : 186 Мбайт (1%)
Заголовок : VO (Живов)
Язык : Russian
Default : Да
Forced : Да
Аудио #2
Идентификатор : 3
Формат : AC-3
Формат/Информация : Audio Coding 3
Расширение режима : CM (complete main)
Параметр Endianness формата : Big
Идентификатор кодека : A_AC3
Продолжительность : 2 ч. 15 м.
Вид битрейта : Постоянный
Битрейт : 192 Кбит/сек
Каналы : 2 канала
Расположение каналов : Front: L R
Частота : 48,0 КГц
Метод сжатия : С потерями
Размер потока : 186 Мбайт (1%)
Заголовок : VO (Либергал)
Язык : Russian
Default : Нет
Forced : Нет
Аудио #3
Идентификатор : 4
Формат : E-AC-3
Формат/Информация : Audio Coding 3
Параметр Endianness формата : Big
Идентификатор кодека : A_EAC3
Продолжительность : 2 ч. 15 м.
Вид битрейта : Постоянный
Битрейт : 224 Кбит/сек
Каналы : 2 канала
Расположение каналов : Front: L R
Частота : 48,0 КГц
Метод сжатия : С потерями
Размер потока : 216 Мбайт (1%)
Язык : English
Default : Нет
Forced : Нет
Текст
Идентификатор : 5
Формат : UTF-8
Идентификатор кодека : S_TEXT/UTF8
Идентификатор кодека/Информация : UTF-8 Plain Text
Язык : English
Default : Нет
Forced : Нет

Скриншоты

Релиз от:
[Профиль] [ЛС]
Кто просматривает тему:

Показать сообщения:    

Текущее время: Сегодня 06:24

Часовой пояс: GMT



Вы не можете начинать темы
Вы не можете отвечать на сообщения
Вы не можете редактировать свои сообщения
Вы не можете удалять свои сообщения
Вы не можете голосовать в опросах
Вы не можете прикреплять файлы к сообщениям
Вы не можете скачивать файлы