Дурман / Weeds [S03] (2007) BDRip 1080p | P, A

 
Автор Сообщение

Russian Mafia ®

Пол:

Стаж: 1 год 8 месяцев

Сообщений: 4256



Награды: 10 (Подробнее)

Mega Seeder 3 (Количество: 1) За внесенный вклад в развитие сайта (Количество: 1) Top Releaser 2 (Количество: 1)
Торрент-статистика

Создавать темы 09-Авг-2016 07:24

[Цитировать]

Название: Дурман
Оригинальное название: Weeds
Год выхода: 2007
Страна: США
Студия: Lions Gate Television, Tilted Productions, Weeds Productions
Продолжительность: 15 x ~ 28:00
Жанр: драма, комедия, криминал, ...
Режиссер: Крейг Зиск, Майкл Трим, Скотт Эллис, ...
В ролях: Мэри-Луиз Паркер, Хантер Пэрриш, Александр Гулд, Кевин Нилон, Джастин Кирк, Элизабет Перкинс, Элли Грант, Энди Милдер, Тони Патано, Романи Малко, Демиан Бишир, Энрике Кастильо, Молик Панчоли, Индиго, Гильермо Диас, Рени Виктор, Джек Стелин, Мартин Донован, Бекки Тая, Мэттью Модайн, Шошанна Штерн, Пейдж Кеннеди, Фацо-Фасано, Брюс Нозик, Майкл Харни, ...
Перевод:
- Профессиональный (многоголосный, закадровый) Fox Life
- Авторский (одноголосый, закадровый) Строев Денис
- Субтитры
О фильме: Нэнси вдова с двумя весьма оригинальными детьми. Старший, Сайлас, мальчик умный и интересный, с постоянными проблемами на любовном фронте, младший, Шейн — это вообще отдельная песня, за мамой он ходит постоянно и просит дать ему антидепрессанты, причем в больших количествах.
Нэнси не нашла никакого другого способа прокормить семью, как начать торговать марихуаной, которую ей подбрасывает семейка афроамериканцев, где всем заправляет Хейлия, а помогает весьма неравнодушный к Нэнси парень Конрад.
У Нэнси начали отовариваться все ее соседи — адвокаты, финансисты и прочие личности. В общем, можете себе представить эту картину, здорово приправленную черным юмором, замечательными комедийными вставками и трагикомическими поворотами.…

Кодек: x264
Качество: BDRip 1080p
Видео: 1920x1080 , ~11000 kbps, 23,976 fps
Аудио #1: MP3, 2 ch, 128 kbps (Rus) - MVO Fox Life
Аудио #2: AC-3, 6 ch, 448 kbps (Rus) - AVO Строев Денис (с 01 по 09 епизод)
Аудио #3: DTS, 7 ch, 1509 kbps (Eng)
Субтитры: Русские, Английские

Дополнительная информация

Перевод и озвучивание Денисом Строевым осуществлено в рамках сервиса "Озвучивание".
Спонсоры: s_white, Frailty, markinscor, shifu, Kain_Rasiel, Vlad1k_H_, ARTYq, shandorra, BLADE, meil, man1280, AlekseyEnerg, towel_RG_400, Gunslinger87, aki77, hv44, Illise, prostokaktus, nazi88, mary_myr, nekazz, maxon1276, Borman2000

MediaInfo

Общее
Уникальный идентификатор : 214024310760154108946496579033300353400 (0xA103953868AFD3F7B2B03D1787CE4178)
Полное имя : Weeds E01 S03 2007 BDRip 1080p FoxLife Строев.mkv
Формат : Matroska
Версия формата : Version 2
Размер файла : 2,79 Гбайт
Продолжительность : 27 м.
Режим общего битрейта : Переменный
Общий поток : 14,4 Мбит/сек
Дата кодирования : UTC 2016-08-08 13:28:55
Программа кодирования : mkvmerge v4.0.0 ('The Stars were mine') сборка от Jun 6 2010 16:18:42
Библиотека кодирования : libebml v1.0.0 + libmatroska v1.0.0
Видео
Идентификатор : 1
Формат : AVC
Формат/Информация : Advanced Video Codec
Профиль формата : High@L4.1
Параметр CABAC формата : Да
Параметр ReFrames формата : 3 кадра
Идентификатор кодека : V_MPEG4/ISO/AVC
Продолжительность : 27 м.
Вид битрейта : Переменный
Битрейт : 12,3 Мбит/сек
Максимальный битрейт : 25,0 Мбит/сек
Ширина : 1920 пикселей
Высота : 1080 пикселей
Соотношение сторон : 16:9
Режим частоты кадров : Постоянный
Частота кадров : 23,976 (24000/1001) кадра/сек
Цветовое пространство : YUV
Субдискретизация насыщенности : 4:2:0
Битовая глубина : 8 бит
Тип развёртки : Прогрессивная
Бит/(Пиксели*Кадры) : 0.247
Размер потока : 2,33 Гбайт (84%)
Библиотека кодирования : x264 core 80 r1376kGIT 3feaec2
Настройки программы : cabac=1 / ref=3 / deblock=1:0:0 / analyse=0x3:0x133 / me=umh / subme=7 / psy=1 / psy_rd=1.0:0.0 / mixed_ref=1 / me_range=16 / chroma_me=1 / trellis=1 / 8x8dct=1 / cqm=0 / deadzone=21,11 / fast_pskip=1 / chroma_qp_offset=-2 / threads=12 / sliced_threads=0 / nr=0 / decimate=1 / mbaff=0 / constrained_intra=0 / bframes=3 / b_pyramid=0 / b_adapt=1 / b_bias=0 / direct=1 / wpredb=1 / wpredp=2 / keyint=240 / keyint_min=24 / scenecut=40 / rc_lookahead=40 / rc=2pass / mbtree=1 / bitrate=12288 / ratetol=1.0 / qcomp=0.60 / qpmin=10 / qpmax=51 / qpstep=4 / cplxblur=20.0 / qblur=0.5 / vbv_maxrate=25000 / vbv_bufsize=25000 / ip_ratio=1.40 / aq=1:1.00
Язык : English
Default : Нет
Forced : Нет
Аудио #1
Идентификатор : 2
Формат : MPEG Audio
Версия формата : Version 1
Профиль формата : Layer 3
Режим : Joint stereo
Расширение режима : MS Stereo
Идентификатор кодека : A_MPEG/L3
Идентификатор кодека/Подсказка : MP3
Продолжительность : 27 м.
Вид битрейта : Постоянный
Битрейт : 128 Кбит/сек
Каналы : 2 канала
Частота : 48,0 КГц
Метод сжатия : С потерями
Размер потока : 25,5 Мбайт (1%)
Заголовок : Fox Life
Язык : Russian
Default : Нет
Forced : Нет
Аудио #2
Идентификатор : 3
Формат : AC-3
Формат/Информация : Audio Coding 3
Расширение режима : CM (complete main)
Параметр Endianness формата : Big
Идентификатор кодека : A_AC3
Продолжительность : 27 м.
Вид битрейта : Постоянный
Битрейт : 448 Кбит/сек
Каналы : 6 каналов
Расположение каналов : Front: L C R, Side: L R, LFE
Частота : 48,0 КГц
Частота кадров : 31,250 кадров/сек (1536 spf)
Метод сжатия : С потерями
Размер потока : 89,1 Мбайт (3%)
Заголовок : AVO Строев Денис (de}{ter)
Язык : Russian
Default : Нет
Forced : Нет
Аудио #3
Идентификатор : 4
Формат : DTS
Формат/Информация : Digital Theater Systems
Режим : 16
Параметр Endianness формата : Big
Идентификатор кодека : A_DTS
Продолжительность : 27 м.
Вид битрейта : Постоянный
Битрейт : 1509 Кбит/сек
Каналы : 6 каналов
Расположение каналов : Front: L C R, Side: L R, LFE
Частота : 48,0 КГц
Частота кадров : 93,750 кадра/сек (512 spf)
Битовая глубина : 24 бит
Метод сжатия : С потерями
Задержка видео : 11 мс.
Размер потока : 300 Мбайт (10%)
Язык : English
Default : Нет
Forced : Нет
Текст #1
Идентификатор : 5
Формат : UTF-8
Идентификатор кодека : S_TEXT/UTF8
Идентификатор кодека/Информация : UTF-8 Plain Text
Язык : Russian
Default : Нет
Forced : Нет
Текст #2
Идентификатор : 6
Формат : UTF-8
Идентификатор кодека : S_TEXT/UTF8
Идентификатор кодека/Информация : UTF-8 Plain Text
Язык : English
Default : Нет
Forced : Нет

[Профиль] [ЛС]
Показать сообщения:    

Текущее время: Сегодня 02:24

Часовой пояс: GMT



Вы не можете начинать темы
Вы не можете отвечать на сообщения
Вы не можете редактировать свои сообщения
Вы не можете удалять свои сообщения
Вы не можете голосовать в опросах
Вы не можете прикреплять файлы к сообщениям
Вы не можете скачивать файлы