Дурдом на колесах / RV (Барри Зонненфельд / Barry Sonnenfeld) [2006, Великобритания, Германия, США, HDRip] AVO (Гранкин)

 
Автор Сообщение

painkiller ®

Стаж: 2 года 3 месяца

Сообщений: 582



Награды: Нет

Торрент-статистика

Создавать темы 14-Авг-2014 09:11

[Цитировать]

Дурдом на колесах / RV Страна: Великобритания, Германия, США
Жанр: комедия, приключения, семейный
Год выпуска: 2006
Продолжительность: 01:38:47
Перевод: Авторский (одноголосый закадровый) Евгений Гранкин
Cубтитры: нет
Режиссер: Барри Зонненфельд / Barry Sonnenfeld
В ролях: Робин Уильямс, Шерил Хайнс, Джоанна «ДжоДжо» Левески, Джош Хатчерсон, Джефф Дэниелс, Кристин Ченоуэт, Хантер Пэрриш, Хлоя Сонненфельд, Алекс Феррис, Уилл Арнетт
Описание: Трудоголик Боб Мунро, его жена Джейми, их 15-летняя дочь Касси и 12-летний сын Карл определённо нуждаются в том, чтобы проводить больше времени вместе. Дав обещание отправиться всей семьей на отдых на Гавайи, Боб внезапно меняет планы, не ставя остальных в известность об этом. И вместо недели в тропическом раю они направляются в дорожное путешествие в Колорадо в специально приспособленном для таких поездок трейлере (кратко именуемом RV).
Однако, продуманный план Боба по воссоединению семьи, затащивший сопротивляющихся и негодующих жену и детей в RV, моментально даёт трещину. Бездарные попытки Боба управлять огромным неповоротливым трейлером встречают молчаливое пренебрежение со стороны его семьи. Жизнь в RV разительно отличается от их комфортабельной жизни в Лос-Анджелесе, и каждая попытка Боба принести атмосферу отдыха и уюта угрожает ещё больше разъединить их.
Достигнув лагеря отдыха, Мунро знакомятся с семьёй Горнике, которые, к их немалому раздражению, испытывают немалое удовольствие от беззаботных постоянных
странствий в RV. Чем больше они стараются избежать любого контакта с ними, тем больше их пути пересекаются. Но череда бедствий неожиданно способствует
объединению даже самых отдалившихся друг от друга членов семьи, и каждый неудачный опыт невольно помогает им снова найти друг друга и стать полноценной
семьёй.

Качество видео: HDRip спасибо порошков
Формат видео: AVI
Видео кодек: XviD
Аудио кодек: Mp3
Видео: 688x288 (2.39:1), 23.976 fps, XviD build 50 ~915 kbps avg, 0.19 bit/pixel
Аудио: 48 kHz, MPEG Layer 3, 2 ch, ~128.00 kbps avg за Гранкина спасибо B@G
MediaInfoПолное имя : Дурдом на колесах 2006.avi
Формат : AVI
Формат/Информация : Audio Video Interleave
Размер файла : 744 Мбайт
Продолжительность : 1 ч. 38 м.
Общий поток : 1052 Кбит/сек
Программа кодирования : VirtualDubMod 1.5.10.2 (build 2540/release)
Библиотека кодирования : VirtualDubMod build 2540/release
Видео
Идентификатор : 0
Формат : MPEG-4 Visual
Профиль формата : Advanced Simple@L5
Параметр BVOP формата : 1
Параметр QPel формата : Нет
Параметр GMC формата : Без точки перехода
Параметр матрицы формата : Default (MPEG)
Идентификатор кодека : XVID
Идентификатор кодека/Подсказка : XviD
Продолжительность : 1 ч. 38 м.
Битрейт : 916 Кбит/сек
Ширина : 688 пикселей
Высота : 288 пикселей
Соотношение сторон : 2,40:1
Частота кадров : 23,976 кадра/сек
Цветовое пространство : YUV
Субдискретизация насыщенности : 4:2:0
Битовая глубина : 8 бит
Тип развёртки : Прогрессивная
Метод сжатия : С потерями
Бит/(Пиксели*Кадры) : 0.193
Размер потока : 647 Мбайт (87%)
Библиотека кодирования : XviD 1.2.1 (UTC 2008-12-04)
Аудио
Идентификатор : 1
Формат : MPEG Audio
Версия формата : Version 1
Профиль формата : Layer 3
Режим : Joint stereo
Идентификатор кодека : 55
Идентификатор кодека/Подсказка : MP3
Продолжительность : 1 ч. 38 м.
Вид битрейта : Постоянный
Битрейт : 128 Кбит/сек
Каналы : 2 канала
Частота : 48,0 КГц
Метод сжатия : С потерями
Размер потока : 90,1 Мбайт (12%)
Выравнивание : Соединение по промежуткам
Продолжительность промежутка : 42 мс. (1,00 видеокадр)
Время предзагрузки промежутка : 504 мс.
Библиотека кодирования : LAME3.99r
Настройки программы : -m j -V 4 -q 2 -lowpass 17 -b 128

Скриншоты

[Профиль] [ЛС]

Создавать темы 06-Авг-2015 23:17 (спустя 11 месяцев 23 дня)

Топик был перенесен из форума Фильмы до 2014 года в форум Фильмы до 2012 года
sergej644
 
Показать сообщения:    

Текущее время: Сегодня 02:44

Часовой пояс: GMT



Вы не можете начинать темы
Вы не можете отвечать на сообщения
Вы не можете редактировать свои сообщения
Вы не можете удалять свои сообщения
Вы не можете голосовать в опросах
Вы не можете прикреплять файлы к сообщениям
Вы не можете скачивать файлы