Дурацкое дело нехитрое / Kraftidioten / In Order of Disappearance (Ганс Петтер Моланд / Hans Petter Moland) [2014, Норвегия, Швеция, криминал, комедия, BDRip 1080p] MVO + Sub Eng, Nor + Original Nor

 
Автор Сообщение

Russian Mafia ®

Пол:

Стаж: 1 год 8 месяцев

Сообщений: 4247



Награды: 10 (Подробнее)

За внесенный вклад в развитие сайта (Количество: 1) Mega Seeder 1 (Количество: 1) Mega Seeder 5 (Количество: 1)
Торрент-статистика

Создавать темы 28-Мар-2016 15:47

[Цитировать]

Дурацкое дело нехитрое / Kraftidioten / In Order of Disappearance
Страна: Норвегия, Швеция
Жанр: криминал, комедия
Год выпуска: 2014
Продолжительность: 01:56:28
Перевод: Профессиональный (многоголосый закадровый)
Cубтитры: английские, норвежские
Оригинальная аудиодорожка: норвежский
Режиссер: Ганс Петтер Моланд / Hans Petter Moland
В ролях: Стеллан Скарсгард, Якоб Офтебро, Кристофер Хивджу, Биргитта Йорт Сёренсен, Тобиас Зантельман, Бруно Ганц, Сергей Трифунович
Описание: Норвегия. Зима. Трудолюбивый Нилс управляет мощным плужным снегоочистителем, который очищает дороги и горные проходы негостеприимного обледенелого ландшафта местности, где он сам живёт. Совсем недавно он был признан жителем года за свои старания, а теперь получает известие о том, что его сын погиб в результате передозировки героина. Отказываясь верить в правдивость официальной версии смерти своего сына, он начинает тайное расследование с целью найти предполагаемых убийц парня. Однако дальнейшие события разворачиваются самым непредсказуемым образом, и ему приходится стать таинственным героем, внушающим страх в преступном мире.
3 wins & 4 nominations
Доп. информация: К BDRip 1080p, скачанному с забугорного трекера, добавлена русская звуковая дорожка, за которую спасибо G00ba.
Используемый софт: MKVtool, BeSweet, Sony Vegas 10
Сэмпл: http://multi-up.com/1037527
Тип релиза: BDRip 1080p
Контейнер: MKV
Видео: AVC, 14000 Кбит/сек, 1920x816, 23.976 fps
Аудио: Russian (Dolby AC3, 2 ch), 256 Kbp
Аудио 2: Norwegian, DTS, 1536 kb/s (6 ch), 48 kHz
Формат субтитров: UTF-8

MediaInfo

Формат : Matroska
Версия формата : Version 2
Размер файла : 13,1 Гбайт
Продолжительность : 1 ч. 56 м.
Общий поток : 16,0 Мбит/сек
Дата кодирования : UTC 2015-03-10 15:10:20
Программа кодирования : mkvmerge v7.5.0 ('Glass Culture') 32bit built on Jan 4 2015 16:37:25
Библиотека кодирования : libebml v1.3.1 + libmatroska v1.4.2
DURATION : 01:46:17.313000000
NUMBER_OF_FRAMES : 659
NUMBER_OF_BYTES : 24441
_STATISTICS_WRITING_APP : mkvmerge v7.5.0 ('Glass Culture') 32bit built on Jan 4 2015 16:37:25
_STATISTICS_WRITING_DATE_UTC : 2015-03-10 15:10:20
_STATISTICS_TAGS : BPS DURATION NUMBER_OF_FRAMES NUMBER_OF_BYTES
Видео
Идентификатор : 1
Формат : AVC
Формат/Информация : Advanced Video Codec
Профиль формата : High@L4.1
Параметр CABAC формата : Да
Параметр ReFrames формата : 12 кадров
Идентификатор кодека : V_MPEG4/ISO/AVC
Продолжительность : 1 ч. 56 м.
Битрейт : 14,0 Мбит/сек
Ширина : 1920 пикселей
Высота : 816 пикселей
Соотношение сторон : 2,35:1
Режим частоты кадров : Постоянный
Частота кадров : 24,000 кадра/сек
Цветовое пространство : YUV
Субдискретизация насыщенности : 4:2:0
Битовая глубина : 8 бит
Тип развёртки : Прогрессивная
Бит/(Пиксели*Кадры) : 0.371
Размер потока : 11,4 Гбайт (87%)
Библиотека кодирования : x264 core 144 r2525 40bb568
Настройки программы : cabac=1 / ref=12 / deblock=1:-3:-3 / analyse=0x3:0x133 / me=umh / subme=10 / psy=1 / psy_rd=1.00:0.00 / mixed_ref=1 / me_range=24 / chroma_me=1 / trellis=2 / 8x8dct=1 / cqm=0 / deadzone=21,11 / fast_pskip=1 / chroma_qp_offset=-2 / threads=12 / lookahead_threads=3 / sliced_threads=0 / nr=0 / decimate=1 / interlaced=0 / bluray_compat=0 / constrained_intra=0 / bframes=12 / b_pyramid=2 / b_adapt=2 / b_bias=0 / direct=3 / weightb=1 / open_gop=0 / weightp=2 / keyint=250 / keyint_min=24 / scenecut=40 / intra_refresh=0 / rc=crf / mbtree=0 / crf=16.0 / qcomp=0.65 / qpmin=0 / qpmax=69 / qpstep=4 / ip_ratio=1.40 / pb_ratio=1.30 / aq=1:0.95
Язык : Russian
Default : Да
Forced : Нет
DURATION : 01:56:28.542000000
NUMBER_OF_FRAMES : 167725
NUMBER_OF_BYTES : 12476199367
_STATISTICS_WRITING_APP : mkvmerge v7.5.0 ('Glass Culture') 32bit built on Jan 4 2015 16:37:25
_STATISTICS_WRITING_DATE_UTC : 2015-03-10 15:10:20
_STATISTICS_TAGS : BPS DURATION NUMBER_OF_FRAMES NUMBER_OF_BYTES
Аудио #1
Идентификатор : 2
Формат : AC-3
Формат/Информация : Audio Coding 3
Расширение режима : CM (complete main)
Параметр Endianness формата : Big
Идентификатор кодека : A_AC3
Продолжительность : 1 ч. 56 м.
Вид битрейта : Постоянный
Битрейт : 256 Кбит/сек
Каналы : 2 канала
Расположение каналов : Front: L R
Частота : 48,0 КГц
Битовая глубина : 16 бит
Метод сжатия : С потерями
Размер потока : 213 Мбайт (2%)
Заголовок : Russian AC3
Язык : Russian
Default : Да
Forced : Нет
Аудио #2
Идентификатор : 3
Формат : DTS
Формат/Информация : Digital Theater Systems
Режим : 16
Параметр Endianness формата : Big
Идентификатор кодека : A_DTS
Продолжительность : 1 ч. 56 м.
Вид битрейта : Постоянный
Битрейт : 1509 Кбит/сек
Каналы : 6 каналов
Расположение каналов : Front: L C R, Side: L R, LFE
Частота : 48,0 КГц
Битовая глубина : 24 бит
Метод сжатия : С потерями
Размер потока : 1,23 Гбайт (9%)
Заголовок : Norwegian
Язык : Norwegian
Default : Нет
Forced : Нет
Текст #1
Идентификатор : 4
Формат : UTF-8
Идентификатор кодека : S_TEXT/UTF8
Идентификатор кодека/Информация : UTF-8 Plain Text
Язык : Norwegian
Default : Нет
Forced : Нет
Текст #2
Идентификатор : 5
Формат : UTF-8
Идентификатор кодека : S_TEXT/UTF8
Идентификатор кодека/Информация : UTF-8 Plain Text
Язык : Swedish
Default : Нет
Forced : Нет
Текст #3
Идентификатор : 6
Формат : UTF-8
Идентификатор кодека : S_TEXT/UTF8
Идентификатор кодека/Информация : UTF-8 Plain Text
Язык : Danish
Default : Нет
Forced : Нет
Текст #4
Идентификатор : 7
Формат : UTF-8
Идентификатор кодека : S_TEXT/UTF8
Идентификатор кодека/Информация : UTF-8 Plain Text
Язык : Finnish
Default : Нет
Forced : Нет
Текст #5
Идентификатор : 8
Формат : UTF-8
Идентификатор кодека : S_TEXT/UTF8
Идентификатор кодека/Информация : UTF-8 Plain Text
Язык : English
Default : Нет
Forced : Нет

Скриншоты

[Профиль] [ЛС]
Показать сообщения:    

Текущее время: Сегодня 17:58

Часовой пояс: GMT



Вы не можете начинать темы
Вы не можете отвечать на сообщения
Вы не можете редактировать свои сообщения
Вы не можете удалять свои сообщения
Вы не можете голосовать в опросах
Вы не можете прикреплять файлы к сообщениям
Вы не можете скачивать файлы