Дурак (2014) BDRip 1080p | Лицензия

 
Автор Сообщение

достали все ®

Пол:

Стаж: 1 год 8 месяцев

Сообщений: 6525



Награды: 12 (Подробнее)

Mega Releaser 1 (Количество: 1) Top Releaser 3 (Количество: 1) Mega Seeder 5 (Количество: 1)
Торрент-статистика

Создавать темы 30-Апр-2016 04:08

[Цитировать]

Информация о фильме
Оригинальное название: Дурак
Год выпуска: 2014
Жанр: Драма
Выпущено: Россия, Rock Film Studio
Режиссер: Юрий Быков
В ролях: Артём Быстров, Наталья Суркова, Юрий Цурило, Борис Невзоров, Кирилл Полухин, Роман Майоров, Иван Брэд, Александр Коршунов, Ольга Самошина, Дарья Мороз
О фильме: Никита — молодой парень, работающий сантехником и являющийся одним из лучших специалистов в городе. Однажды его вызывают в общежитие, расположенное на окраине города, в котором произошла авария. Приехав на место, он обнаруживает, что по всему зданию пошла трещина, а это значит, что дом может рухнуть в любую минуту. Понимая, что провести эвакуацию и переселение жильцов, численность которых достигает 800 человек, невозможно без согласования сверху, Никита решает сделать все возможное, чтобы достучаться до чиновников. Однако сделать это оказывается очень непросто, поскольку верхушка города очень глубоко погрязла в коррупции и не желает ничего предпринимать. Но парень не собирается отступать, даже когда его жизни начинает угрожать опасность...

Файл
Качество: BDRip (1080p)
Видео: MPEG-4 AVC, 7726 Кбит/с, 1920x808, 24 кадр/c
Аудио: Русский (AC3, 2 ch, 640 Кбит/с), (AC3, 6 ch, 384 Кбит/с), (DTS, 2 ch, 1509 Кбит/с)
Размер: 8.66 ГБ
Продолжительность: 02:00:52
Язык: Русский
Субтитры: Английские
Сохранены оригинальные чаптеры как на Blu-Ray.
Озвучивание - (Лицензия)

x264

x264 [info]: frame I:910 Avg QP:14.72 size:176985
x264 [info]: frame P:37855 Avg QP:16.89 size: 76559
x264 [info]: frame B:135287 Avg QP:18.14 size: 29142
x264 [info]: consecutive B-frames: 1.9% 2.5% 13.4% 9.3% 16.0% 48.4% 4.9% 0.6% 1.2% 1.8%
x264 [info]: mb I I16..4: 7.7% 86.1% 6.2%
x264 [info]: mb P I16..4: 1.8% 27.9% 0.7% P16..4: 27.4% 29.1% 7.5% 0.8% 0.0% skip: 4.8%
x264 [info]: mb B I16..4: 0.6% 5.3% 0.1% B16..8: 34.6% 19.5% 2.6% direct: 6.1% skip:31.3% L0:46.0% L1:43.5% BI:10.5%
x264 [info]: 8x8 transform intra:90.2% inter:60.5%
x264 [info]: direct mvs spatial:99.0% temporal:1.0%
x264 [info]: coded y,uvDC,uvAC intra: 81.6% 90.6% 79.8% inter: 24.0% 30.1% 12.4%
x264 [info]: i16 v,h,dc,p: 50% 21% 9% 20%
x264 [info]: i8 v,h,dc,ddl,ddr,vr,hd,vl,hu: 9% 8% 36% 7% 8% 8% 8% 8% 9%
x264 [info]: i4 v,h,dc,ddl,ddr,vr,hd,vl,hu: 14% 15% 19% 6% 11% 10% 9% 7% 7%
x264 [info]: i8c dc,h,v,p: 67% 14% 10% 8%
x264 [info]: Weighted P-Frames: Y:2.1% UV:1.3%
x264 [info]: ref P L0: 46.9% 8.4% 25.8% 8.1% 9.3% 1.4% 0.0%
x264 [info]: ref B L0: 73.9% 18.6% 5.6% 1.9%
x264 [info]: ref B L1: 92.2% 7.8%
x264 [info]: kb/s:7723.70

Инфо-файл

Общее
Уникальный идентификатор : 247938271484469785260932573845864167329 (0xBA872C9483C6975CB4DE5DBAC8BDB7A1)
Полное имя : D:ЗагрузкиThe.Fool.2014.x264.BDRip.(1080p).ExKinoRay.mkv
Формат : Matroska
Версия формата : Version 2
Размер файла : 8,66 Гбайт
Продолжительность : 2 ч. 0 м.
Общий поток : 10,3 Мбит/сек
Название фильма : Дурак.2014.Rip by: ollan
Дата кодирования : UTC 2016-04-29 21:49:06
Программа кодирования : mkvmerge v5.6.0 ('Kenya Kane') built on May 27 2012 16:44:04
Библиотека кодирования : libebml v1.2.3 + libmatroska v1.3.0
Attachements : Cover - The.Fool.png
Видео
Идентификатор : 1
Формат : AVC
Формат/Информация : Advanced Video Codec
Профиль формата : High@L4.1
Параметр CABAC формата : Да
Параметр ReFrames формата : 5 кадров
Идентификатор кодека : V_MPEG4/ISO/AVC
Продолжительность : 2 ч. 0 м.
Битрейт : 7726 Кбит/сек
Ширина : 1920 пикселей
Высота : 808 пикселей
Соотношение сторон : 2,40:1
Режим частоты кадров : Постоянный
Частота кадров : 24,000 кадра/сек
Цветовое пространство : YUV
Субдискретизация насыщенности : 4:2:0
Битовая глубина : 8 бит
Тип развёртки : Прогрессивная
Бит/(Пиксели*Кадры) : 0.208
Размер потока : 6,35 Гбайт (73%)
Библиотека кодирования : x264 core 146 r2538 121396c
Настройки программы : cabac=1 / ref=5 / deblock=1:-3:-3 / analyse=0x3:0x133 / me=umh / subme=11 / psy=1 / psy_rd=1.00:0.15 / mixed_ref=1 / me_range=48 / chroma_me=1 / trellis=2 / 8x8dct=1 / cqm=0 / deadzone=21,11 / fast_pskip=0 / chroma_qp_offset=-3 / threads=12 / lookahead_threads=2 / sliced_threads=0 / nr=0 / decimate=0 / interlaced=0 / bluray_compat=0 / constrained_intra=0 / bframes=9 / b_pyramid=2 / b_adapt=2 / b_bias=0 / direct=3 / weightb=1 / open_gop=0 / weightp=2 / keyint=240 / keyint_min=23 / scenecut=40 / intra_refresh=0 / rc_lookahead=40 / rc=2pass / mbtree=0 / bitrate=7726 / ratetol=1.0 / qcomp=0.60 / qpmin=0 / qpmax=69 / qpstep=4 / cplxblur=20.0 / qblur=0.5 / vbv_maxrate=50000 / vbv_bufsize=62500 / nal_hrd=none / filler=0 / ip_ratio=1.40 / pb_ratio=1.30 / aq=1:1.00
Язык : Russian
Default : Да
Forced : Нет
Аудио #1
Идентификатор : 2
Формат : AC-3
Формат/Информация : Audio Coding 3
Расширение режима : CM (complete main)
Параметр Endianness формата : Big
Идентификатор кодека : A_AC3
Продолжительность : 2 ч. 0 м.
Вид битрейта : Постоянный
Битрейт : 640 Кбит/сек
Каналы : 5 каналов
Расположение каналов : Front: L C R, Side: L R
Частота : 48,0 КГц
Частота кадров : 31,250 кадров/сек (1536 spf)
Метод сжатия : С потерями
Размер потока : 553 Мбайт (6%)
Язык : Russian
Default : Да
Forced : Нет
Аудио #2
Идентификатор : 3
Формат : AC-3
Формат/Информация : Audio Coding 3
Расширение режима : CM (complete main)
Параметр Endianness формата : Big
Идентификатор кодека : A_AC3
Продолжительность : 2 ч. 0 м.
Вид битрейта : Постоянный
Битрейт : 384 Кбит/сек
Каналы : 6 каналов
Расположение каналов : Front: L C R, Side: L R, LFE
Частота : 48,0 КГц
Частота кадров : 31,250 кадров/сек (1536 spf)
Метод сжатия : С потерями
Размер потока : 332 Мбайт (4%)
Заголовок : iTunes Russia
Язык : Russian
Default : Нет
Forced : Нет
Аудио #3
Идентификатор : 4
Формат : DTS
Формат/Информация : Digital Theater Systems
Режим : 16
Параметр Endianness формата : Big
Идентификатор кодека : A_DTS
Продолжительность : 2 ч. 0 м.
Вид битрейта : Постоянный
Битрейт : 1509 Кбит/сек
Каналы : 2 канала
Расположение каналов : Front: L R
Частота : 48,0 КГц
Частота кадров : 93,750 кадра/сек (512 spf)
Битовая глубина : 24 бит
Метод сжатия : С потерями
Размер потока : 1,27 Гбайт (15%)
Заголовок : Лицензия
Язык : Russian
Default : Нет
Forced : Нет
Текст
Идентификатор : 5
Формат : UTF-8
Идентификатор кодека : S_TEXT/UTF8
Идентификатор кодека/Информация : UTF-8 Plain Text
Язык : English
Default : Нет
Forced : Нет
Меню
00:00:00.000 : ru:Chapter 01
00:00:10.916 : ru:Chapter 02
00:11:52.416 : ru:Chapter 03
00:27:22.500 : ru:Chapter 04
00:38:12.291 : ru:Chapter 05
00:55:16.916 : ru:Chapter 06
01:10:22.458 : ru:Chapter 07
01:29:37.583 : ru:Chapter 08
01:47:44.833 : ru:Chapter 09
02:01:03.083 : ru:Chapter 10

Скриншоты



Rip by:
[Профиль] [ЛС]
Показать сообщения:    

Текущее время: Сегодня 11:55

Часовой пояс: GMT



Вы не можете начинать темы
Вы не можете отвечать на сообщения
Вы не можете редактировать свои сообщения
Вы не можете удалять свои сообщения
Вы не можете голосовать в опросах
Вы не можете прикреплять файлы к сообщениям
Вы не можете скачивать файлы