Дурак (2014) BDRip 720p | Лицензия

 
Автор Сообщение

достали все ®

Пол:

Стаж: 1 год 8 месяцев

Сообщений: 6616



Награды: 12 (Подробнее)

За внесенный вклад в развитие сайта (Количество: 1) Mega Seeder 5 (Количество: 1) Top Releaser 2 (Количество: 1)
Торрент-статистика

Создавать темы 30-Апр-2016 04:00

[Цитировать]

Информация о фильме
Название: Дурак
Год выхода: 2014
Жанр: драма
Режиссер: Юрий Быков
В ролях: Артем Быстров, Наталья Суркова, Юрий Цурило, Борис Невзоров, Кирилл Полухин, Роман Майоров, Иван Брэд, Александр Коршунов, Ольга Самошина, Дарья Мороз
О фильме:
Жизни 800 человек общежития висят буквально на волоске из-за безразличия местных властей. В любую секунду здание может рухнуть. И кто бы мог подумать, что судьбы людей окажутся в руках простого сантехника. Но удастся ли ему что-то изменить и предотвратить катастрофу?

Страна: Россия
Студия: ТПО Рок
Продолжительность: 02:00:52
Перевод: Оригинальный (Blu-ray)
Файл
Формат: Matroska
Видео: 1280x538 at 24.000 fps, x264@L4.1, ~5600 kbps avg
Аудио: Russian: 48 kHz, DTS, 2/0 (L,R) ch, ~1509 kbps avg
Субтитры: English (Full)
***Видеоряд от SbR!

Знаете ли Вы, что...

Фильм посвящен памяти режиссера Алексея Балабанова.
Съёмки фильма проходили в Туле и Москве. Для съёмок разрушающегося здания было найдено реальное общежитие на окраине Тулы. Трещины, ползущие по стене, были созданы художниками. Декорация имеет размер восемь метров в ширину и три в высоту, а остальная часть была дорисована компьютером. Внутри помещений на четырёх этажах трещины были настоящими, их, по согласию жильцов, сделала съёмочная группа (после окончания съёмок за счёт создателей картины был сделан небольшой ремонт). Семейные сцены в доме Никитина снимались в обычной московской квартире в Кузьминках. Во время съёмок хозяева квартиры находились в соседней комнате.

MI

Общее
Уникальный идентификатор : 186026686452603022341500495346575382451 (0x8BF36FC453022ED1A4C3E3CC255097B3)
Полное имя : Дурак (2014).mkv
Формат : Matroska
Версия формата : Version 4 / Version 2
Размер файла : 6,13 Гбайт
Продолжительность : 2 ч. 0 м.
Общий поток : 7258 Кбит/сек
Название фильма : Дурак (2014)
Дата кодирования : UTC 2016-04-29 20:08:57
Программа кодирования : mkvmerge v8.1.0 ('Psychedelic Postcard') 64bit
Библиотека кодирования : libebml v1.3.1 + libmatroska v1.4.2
Attachements : cover.jpg
Видео
Идентификатор : 1
Формат : AVC
Формат/Информация : Advanced Video Codec
Профиль формата : High@L4.1
Параметр CABAC формата : Да
Параметр ReFrames формата : 12 кадров
Идентификатор кодека : V_MPEG4/ISO/AVC
Продолжительность : 2 ч. 0 м.
Битрейт : 5605 Кбит/сек
Ширина : 1280 пикселей
Высота : 538 пикселей
Соотношение сторон : 2,40:1
Режим частоты кадров : Постоянный
Частота кадров : 24,000 кадра/сек
Цветовое пространство : YUV
Субдискретизация насыщенности : 4:2:0
Битовая глубина : 8 бит
Тип развёртки : Прогрессивная
Бит/(Пиксели*Кадры) : 0.339
Размер потока : 4,73 Гбайт (77%)
Заголовок : Дурак
Библиотека кодирования : x264 core 148 r2692+54 69a6f49 t_mod_Custom [8-bit@all X86_64]
Настройки программы : cabac=1 / ref=12 / deblock=1:-3:-3 / analyse=0x3:0x133 / me=umh / subme=10 / psy=1 / fade_compensate=0.00 / psy_rd=1.05:0.05 / mixed_ref=1 / me_range=24 / chroma_me=1 / trellis=2 / 8x8dct=1 / cqm=0 / deadzone=21,11 / fast_pskip=0 / chroma_qp_offset=-3 / threads=6 / lookahead_threads=1 / sliced_threads=0 / nr=0 / decimate=1 / interlaced=0 / bluray_compat=0 / constrained_intra=0 / fgo=0 / bframes=9 / b_pyramid=2 / b_adapt=2 / b_bias=0 / direct=3 / weightb=1 / open_gop=0 / weightp=2 / keyint=250 / keyint_min=24 / scenecut=40 / intra_refresh=0 / rc_lookahead=60 / rc=crf / mbtree=0 / crf=16.0000 / qcomp=0.70 / qpmin=0:0:0 / qpmax=69:69:69 / qpstep=4 / vbv_maxrate=62500 / vbv_bufsize=78125 / crf_max=0.0 / nal_hrd=none / filler=0 / ip_ratio=1.30 / pb_ratio=1.20 / aq=1:0.70 / aq-sensitivity=10.00 / aq-factor=1.00:1.00:1.00 / aq2=1:0.60 / aq2-sensitivity=15.00 / aq2-factor=1.00:1.00:1.00 / aq3=1:[0.50:0.50]:[0.50:0.50]:[0.50:0.50]:[0.50:0.50] / aq3-sensitivity=10.00 / aq3-factor=[1.00:1.00]:[1.00:1.00]:[1.00:1.00] / aq3-boundary=192:64:24
Язык : English
Default : Да
Forced : Нет
Цветовой диапазон : Limited
Основные цвета : BT.709
Характеристики трансфера : BT.709
Коэффициенты матрицы : BT.709
Аудио
Идентификатор : 2
Формат : DTS
Формат/Информация : Digital Theater Systems
Режим : 16
Параметр Endianness формата : Big
Идентификатор кодека : A_DTS
Продолжительность : 2 ч. 0 м.
Вид битрейта : Постоянный
Битрейт : 1509 Кбит/сек
Каналы : 2 канала
Расположение каналов : Front: L R
Частота : 48,0 КГц
Битовая глубина : 24 бит
Метод сжатия : С потерями
Размер потока : 1,27 Гбайт (21%)
Язык : Russian
Default : Да
Forced : Нет
Текст
Идентификатор : 3
Формат : UTF-8
Идентификатор кодека : S_TEXT/UTF8
Идентификатор кодека/Информация : UTF-8 Plain Text
Язык : English
Default : Нет
Forced : Нет

Скриншоты


[Профиль] [ЛС]
Показать сообщения:    

Текущее время: Сегодня 06:22

Часовой пояс: GMT



Вы не можете начинать темы
Вы не можете отвечать на сообщения
Вы не можете редактировать свои сообщения
Вы не можете удалять свои сообщения
Вы не можете голосовать в опросах
Вы не можете прикреплять файлы к сообщениям
Вы не можете скачивать файлы