Дум / Doom (2005) BDRip 720p | Расширенная версия / Unrated Extended Edition | D, P, P2, A

 
Автор Сообщение

Russian Mafia ®

Пол:

Стаж: 1 год 8 месяцев

Сообщений: 4257



Награды: 10 (Подробнее)

Mega Seeder 4 (Количество: 1) Top Releaser 3 (Количество: 1) Top Releaser 4 (Количество: 1)
Торрент-статистика

Создавать темы 15-Авг-2016 15:04

[Цитировать]

ДумDoom«Никто не выйдет живым»- Страна: США, Германия, Великобритания, Чехия
Жанр: Ужасы, фантастика, боевик, триллер, приключения
Год выпуска: 2005
Продолжительность: 01:52:44
Перевод: Профессиональный (полное дублирование), 2 х Профессиональный (многоголосый, закадровый), 2 х Профессиональный (двухголосый,закадровый), 3 х Авторский
Субтитры: русские, английские.-Режиссер: Анджей Бартковяк / Andrzej Bartkowiak-В ролях: Доби Опарей, Карл Урбан, Дуэйн Джонсон, Розамунд Пайк, Разаак Адоти, Ричард Брэйк, Аль Уивер, Декстер Флетчер, Брайан Стил, Бен Дэниелс, Йао Чин, Роберт Расселл, Дэниэл Йорк, Йен Хьюз, Сара Хотон, Бланка Яросова, Владислав Динтера, Пётр Хнетковски, Ярослав Псеничка, Марек Мотличек, Даг Джонс, Рана Моррисон, Барбара Неделякова, Роберт Нельсон-Описание: Экранизация легендарной игры, произведшей в начале 90х настоящий фурор среди геймеров всего мира. 2145 год. После того, как из далёкой научной лаборатории Олдуай был получен сигнал о помощи, на место - планету Марс - пребывает отряд космического спецназа и обнаруживает разгромленную станцию. Вскоре выясняется, что на людей здесь охотятся полчища ужасных существ-мутантов…- -Семпл-Качество: BDRip
Контейнер: MKV
Видео: AVC, 1280x544 (2.35:1), 4743 kbps, 23,976 fps, 0.284 bpp
Аудио №1: русский / AC3 / 5.1 / 48 kHz / 640 kbps / Дубляж ( Blu-ray CEE )
Аудио №2: русский / AC3 / 5.1 / 48 kHz / 640 kbps / DVO ( П. Гланц и И. Королёва )
Аудио №3: русский / AC3 / 5.1 / 48 kHz / 640 kbps / MVO ( студия "Jaskier" )
Аудио №4: русский / AC3 / 5.1 / 48 kHz / 384 kbps / MVO ( Киномания )
Аудио №5: русский / AC3 / 5.1 / 48 kHz / 448 kbps / DVO ( Tycoon )
Аудио №6: русский / AC3 / 5.1 / 48 kHz / 640 kbps / AVO ( Немахов )
Аудио №7: русский / AC3 / 5.1 / 48 kHz / 640 kbps / AVO ( Гаврилов )
Аудио №8: русский / AC3 / 5.1 / 48 kHz / 640 kbps / AVO ( Матвеев )
Аудио №9: английский / AC3 / 5.1 / 48 kHz / 640 kbps
Навигация по главам: есть-

Media Info

*************************************************************************
x264 [info]: frame I:1317 Avg QP:11.03 size: 92836
x264 [info]: frame P:42629 Avg QP:13.88 size: 39718
x264 [info]: frame B:118244 Avg QP:15.90 size: 18533
*************************************************************************
Формат : Matroska
Версия формата : Version 2
Размер файла : 7,92 Гбайт
Продолжительность : 1 ч. 52 м.
Общий поток : 10,1 Мбит/сек
Название фильма : = Дум (Расширенная версия) / Doom (Unrated Extended Edition) (2005) BDRip 720p by SC Kosmos =
Дата кодирования : UTC 2016-08-13 12:30:15
Программа кодирования : mkvmerge v5.8.0 ('No Sleep / Pillow') built on Sep 2 2012 15:37:04
Библиотека кодирования : libebml v1.2.3 + libmatroska v1.3.0
Attachment : Yes
Видео
Идентификатор : 1
Формат : AVC
Формат/Информация : Advanced Video Codec
Профиль формата : High@L4.1
Параметр CABAC формата : Да
Параметр ReFrames формата : 12 кадров
Идентификатор кодека : V_MPEG4/ISO/AVC
Продолжительность : 1 ч. 52 м.
Битрейт : 4743 Кбит/сек
Ширина : 1280 пикселей
Высота : 544 пикселя
Соотношение сторон : 2,35:1
Режим частоты кадров : Постоянный
Частота кадров : 23,976 кадра/сек
Цветовое пространство : YUV
Субдискретизация насыщенности : 4:2:0
Битовая глубина : 8 бит
Тип развёртки : Прогрессивная
Бит/(Пиксели*Кадры) : 0.284
Размер потока : 3,58 Гбайт (45%)
Заголовок : Дум (Расширенная версия) / Doom (Unrated Extended Edition) (2005) BDRip 720p by SC Kosmos
Библиотека кодирования : x264 core 146 r2538 121396c
Настройки программы : cabac=1 / ref=12 / deblock=1:-3:-3 / analyse=0x3:0x113 / me=esa / subme=11 / psy=1 / psy_rd=1.00:0.05 / mixed_ref=1 / me_range=32 / chroma_me=1 / trellis=2 / 8x8dct=1 / cqm=0 / deadzone=21,11 / fast_pskip=0 / chroma_qp_offset=-3 / threads=12 / lookahead_threads=3 / sliced_threads=0 / nr=0 / decimate=1 / interlaced=0 / bluray_compat=0 / constrained_intra=0 / bframes=10 / b_pyramid=2 / b_adapt=2 / b_bias=0 / direct=3 / weightb=1 / open_gop=0 / weightp=2 / keyint=240 / keyint_min=23 / scenecut=40 / intra_refresh=0 / rc_lookahead=50 / rc=2pass / mbtree=0 / bitrate=4743 / ratetol=1.0 / qcomp=0.60 / qpmin=0 / qpmax=69 / qpstep=4 / cplxblur=20.0 / qblur=0.5 / vbv_maxrate=62500 / vbv_bufsize=78125 / nal_hrd=none / filler=0 / ip_ratio=1.40 / pb_ratio=1.30 / aq=1:1.00 / zones=154952,162189,b=0.25
Язык : English
Default : Да
Forced : Нет
Аудио #1
Идентификатор : 2
Формат : AC-3
Формат/Информация : Audio Coding 3
Расширение режима : CM (complete main)
Параметр Endianness формата : Big
Идентификатор кодека : A_AC3
Продолжительность : 1 ч. 52 м.
Вид битрейта : Постоянный
Битрейт : 640 Кбит/сек
Каналы : 6 каналов
Расположение каналов : Front: L C R, Side: L R, LFE
Частота : 48,0 КГц
Битовая глубина : 16 бит
Метод сжатия : С потерями
Размер потока : 516 Мбайт (6%)
Заголовок : Дубляж ( Blu-ray CEE )
Язык : Russian
Default : Да
Forced : Нет
Аудио #2
Идентификатор : 3
Формат : AC-3
Формат/Информация : Audio Coding 3
Расширение режима : CM (complete main)
Параметр Endianness формата : Big
Идентификатор кодека : A_AC3
Продолжительность : 1 ч. 52 м.
Вид битрейта : Постоянный
Битрейт : 640 Кбит/сек
Каналы : 6 каналов
Расположение каналов : Front: L C R, Side: L R, LFE
Частота : 48,0 КГц
Битовая глубина : 16 бит
Метод сжатия : С потерями
Размер потока : 516 Мбайт (6%)
Заголовок : DVO ( П. Гланц и И. Королёва )
Язык : Russian
Default : Нет
Forced : Нет
Аудио #3
Идентификатор : 4
Формат : AC-3
Формат/Информация : Audio Coding 3
Расширение режима : CM (complete main)
Параметр Endianness формата : Big
Идентификатор кодека : A_AC3
Продолжительность : 1 ч. 52 м.
Вид битрейта : Постоянный
Битрейт : 640 Кбит/сек
Каналы : 6 каналов
Расположение каналов : Front: L C R, Side: L R, LFE
Частота : 48,0 КГц
Битовая глубина : 16 бит
Метод сжатия : С потерями
Размер потока : 516 Мбайт (6%)
Заголовок : MVO ( студия "Jaskier" )
Язык : Russian
Default : Нет
Forced : Нет
Аудио #4
Идентификатор : 5
Формат : AC-3
Формат/Информация : Audio Coding 3
Расширение режима : CM (complete main)
Параметр Endianness формата : Big
Идентификатор кодека : A_AC3
Продолжительность : 1 ч. 52 м.
Вид битрейта : Постоянный
Битрейт : 384 Кбит/сек
Каналы : 6 каналов
Расположение каналов : Front: L C R, Side: L R, LFE
Частота : 48,0 КГц
Битовая глубина : 16 бит
Метод сжатия : С потерями
Размер потока : 310 Мбайт (4%)
Заголовок : MVO ( Киномания )
Язык : Russian
Default : Нет
Forced : Нет
Аудио #5
Идентификатор : 6
Формат : AC-3
Формат/Информация : Audio Coding 3
Расширение режима : CM (complete main)
Параметр Endianness формата : Big
Идентификатор кодека : A_AC3
Продолжительность : 1 ч. 52 м.
Вид битрейта : Постоянный
Битрейт : 448 Кбит/сек
Каналы : 6 каналов
Расположение каналов : Front: L C R, Side: L R, LFE
Частота : 48,0 КГц
Битовая глубина : 16 бит
Метод сжатия : С потерями
Размер потока : 361 Мбайт (4%)
Заголовок : DVO ( Tycoon )
Язык : Russian
Default : Нет
Forced : Нет
Аудио #6
Идентификатор : 7
Формат : AC-3
Формат/Информация : Audio Coding 3
Расширение режима : CM (complete main)
Параметр Endianness формата : Big
Идентификатор кодека : A_AC3
Продолжительность : 1 ч. 52 м.
Вид битрейта : Постоянный
Битрейт : 640 Кбит/сек
Каналы : 6 каналов
Расположение каналов : Front: L C R, Side: L R, LFE
Частота : 48,0 КГц
Битовая глубина : 16 бит
Метод сжатия : С потерями
Размер потока : 516 Мбайт (6%)
Заголовок : AVO ( Немахов )
Язык : Russian
Default : Нет
Forced : Нет
Аудио #7
Идентификатор : 8
Формат : AC-3
Формат/Информация : Audio Coding 3
Расширение режима : CM (complete main)
Параметр Endianness формата : Big
Идентификатор кодека : A_AC3
Продолжительность : 1 ч. 52 м.
Вид битрейта : Постоянный
Битрейт : 640 Кбит/сек
Каналы : 6 каналов
Расположение каналов : Front: L C R, Side: L R, LFE
Частота : 48,0 КГц
Битовая глубина : 16 бит
Метод сжатия : С потерями
Размер потока : 516 Мбайт (6%)
Заголовок : AVO ( Гаврилов )
Язык : Russian
Default : Нет
Forced : Нет
Аудио #8
Идентификатор : 9
Формат : AC-3
Формат/Информация : Audio Coding 3
Расширение режима : CM (complete main)
Параметр Endianness формата : Big
Идентификатор кодека : A_AC3
Продолжительность : 1 ч. 52 м.
Вид битрейта : Постоянный
Битрейт : 640 Кбит/сек
Каналы : 6 каналов
Расположение каналов : Front: L C R, Side: L R, LFE
Частота : 48,0 КГц
Битовая глубина : 16 бит
Метод сжатия : С потерями
Размер потока : 516 Мбайт (6%)
Заголовок : AVO ( Матвеев )
Язык : Russian
Default : Нет
Forced : Нет
Аудио #9
Идентификатор : 10
Формат : AC-3
Формат/Информация : Audio Coding 3
Расширение режима : CM (complete main)
Параметр Endianness формата : Big
Идентификатор кодека : A_AC3
Продолжительность : 1 ч. 52 м.
Вид битрейта : Постоянный
Битрейт : 640 Кбит/сек
Каналы : 6 каналов
Расположение каналов : Front: L C R, Side: L R, LFE
Частота : 48,0 КГц
Битовая глубина : 16 бит
Метод сжатия : С потерями
Размер потока : 516 Мбайт (6%)
Язык : English
Default : Нет
Forced : Нет
Текст #1
Идентификатор : 11
Формат : UTF-8
Идентификатор кодека : S_TEXT/UTF8
Идентификатор кодека/Информация : UTF-8 Plain Text
Язык : Russian
Default : Нет
Forced : Нет
Текст #2
Идентификатор : 12
Формат : UTF-8
Идентификатор кодека : S_TEXT/UTF8
Идентификатор кодека/Информация : UTF-8 Plain Text
Язык : English
Default : Нет
Forced : Нет
Меню
00:00:00.000 : en:00:00:00.000
00:02:57.468 : en:00:02:57.468
00:10:59.325 : en:00:10:59.325
00:16:14.598 : en:00:16:14.598
00:21:23.365 : en:00:21:23.365
00:25:33.365 : en:00:25:33.365
00:33:45.773 : en:00:33:45.773
00:38:20.506 : en:00:38:20.506
00:44:12.066 : en:00:44:12.066
00:50:57.554 : en:00:50:57.554
00:55:32.829 : en:00:55:32.829
01:00:14.193 : en:01:00:14.193
01:08:23.182 : en:01:08:23.182
01:13:58.934 : en:01:13:58.934
01:17:58.757 : en:01:17:58.757
01:21:45.775 : en:01:21:45.775
01:27:41.965 : en:01:27:41.965
01:35:08.327 : en:01:35:08.327
01:39:29.380 : en:01:39:29.380
01:43:52.684 : en:01:43:52.684
-

Скриншоты


[Профиль] [ЛС]
Кто просматривает тему:

Форум Тема Автор Размер
Фильмы (HD Rips | 720p, 1080p) Дум / Doom (2005) BDRip 1080p | Unrated Extended Edition Russian Mafia 7.76 GB
Показать сообщения:    

Текущее время: Сегодня 19:36

Часовой пояс: GMT



Вы не можете начинать темы
Вы не можете отвечать на сообщения
Вы не можете редактировать свои сообщения
Вы не можете удалять свои сообщения
Вы не можете голосовать в опросах
Вы не можете прикреплять файлы к сообщениям
Вы не можете скачивать файлы