Дум / Doom (2005) BDRip 1080p | Unrated Extended Edition

 
Автор Сообщение

Russian Mafia ®

Пол:

Стаж: 1 год 8 месяцев

Сообщений: 4246



Награды: 10 (Подробнее)

Mega Seeder 2 (Количество: 1) Top Releaser 4 (Количество: 1) Mega Seeder 1 (Количество: 1)
Торрент-статистика

Создавать темы 03-Апр-2016 03:57

[Цитировать]

Информация о фильме
Название: Дум
Оригинальное название: Doom
Год выхода: 2005
Жанр: ужасы, фантастика, боевик, триллер
Режиссер: Анджей Бартковяк
В ролях: Карл Урбан, Доби Опарей, Розамунд Пайк, Разаак Адоти, Ричард Брэйк, Аль Уивер, Декстер Флетчер, Брайан Стил, Бен Дэниелс, Дуэйн Джонсон
О фильме: 2145 год. После того, как из далёкой научной лаборатории Олдуай был получен сигнал о помощи, на место - планету Марс - пребывает отряд космического спецназа и обнаруживает разгромленную станцию. Вскоре выясняется, что на людей здесь охотятся полчища ужасных существ-мутантов…

Выпущено: Universal Pictures
Продолжительность: 01:52:43
Перевод: Дублированный (лицензия)
Файл
Кодек: x264
Качество: BDRip (источник: HD DVD Disc)
Видео: 1920x816 (2,35:1), 23.976 fps, 8575 kbps
Аудио #1: AC-3, 6 ch, 640 kbps (Rus)
Аудио #2: AC-3, 6 ch, 640 kbps (Eng)
Субтитры: Русские, Английские
Скачать: сэмпл
Скриншоты

MI

Общее
Уникальный идентификатор : 237712854428321045667228218829593616846 (0xB2D5D4986E934CC38FD8DA8A81A7A1CE)
Полное имя : Doom.Unrated.2005.BDRip.1080p.Rus.Eng.mkv
Формат : Matroska
Версия формата : Version 2
Размер файла : 7,76 Гбайт
Продолжительность : 1 ч. 52 м.
Общий поток : 9857 Кбит/сек
Название фильма : Дум / Doom (2005) | Unrated Extended Edition
Дата кодирования : UTC 2016-03-23 17:12:39
Программа кодирования : mkvmerge v5.8.0 ('No Sleep / Pillow') built on Sep 2 2012 15:37:04
Библиотека кодирования : libebml v1.2.3 + libmatroska v1.3.0
Видео
Идентификатор : 1
Формат : AVC
Формат/Информация : Advanced Video Codec
Профиль формата : High@L4.1
Параметр CABAC формата : Да
Параметр ReFrames формата : 5 кадров
Идентификатор кодека : V_MPEG4/ISO/AVC
Продолжительность : 1 ч. 52 м.
Битрейт : 8575 Кбит/сек
Ширина : 1920 пикселей
Высота : 816 пикселей
Соотношение сторон : 2,35:1
Режим частоты кадров : Постоянный
Частота кадров : 23,976 кадра/сек
Цветовое пространство : YUV
Субдискретизация насыщенности : 4:2:0
Битовая глубина : 8 бит
Тип развёртки : Прогрессивная
Бит/(Пиксели*Кадры) : 0.228
Размер потока : 6,60 Гбайт (85%)
Заголовок : Release by AlexKa
Библиотека кодирования : x264 core 148 r2638 7599210
Настройки программы : cabac=1 / ref=5 / deblock=1:-3:-3 / analyse=0x3:0x133 / me=tesa / subme=11 / psy=1 / psy_rd=1.00:0.00 / mixed_ref=1 / me_range=32 / chroma_me=1 / trellis=2 / 8x8dct=1 / cqm=0 / deadzone=21,11 / fast_pskip=0 / chroma_qp_offset=-2 / threads=12 / lookahead_threads=2 / sliced_threads=0 / nr=0 / decimate=0 / interlaced=0 / bluray_compat=0 / constrained_intra=0 / bframes=8 / b_pyramid=2 / b_adapt=2 / b_bias=0 / direct=3 / weightb=1 / open_gop=0 / weightp=2 / keyint=240 / keyint_min=23 / scenecut=40 / intra_refresh=0 / rc=2pass / mbtree=0 / bitrate=8575 / ratetol=1.0 / qcomp=0.60 / qpmin=0 / qpmax=69 / qpstep=4 / cplxblur=20.0 / qblur=0.5 / ip_ratio=1.40 / pb_ratio=1.30 / aq=3:1.00
Язык : English
Аудио #1
Идентификатор : 2
Формат : AC-3
Формат/Информация : Audio Coding 3
Расширение режима : CM (complete main)
Параметр Endianness формата : Big
Идентификатор кодека : A_AC3
Продолжительность : 1 ч. 52 м.
Вид битрейта : Постоянный
Битрейт : 640 Кбит/сек
Каналы : 6 каналов
Расположение каналов : Front: L C R, Side: L R, LFE
Частота : 48,0 КГц
Метод сжатия : С потерями
Размер потока : 516 Мбайт (6%)
Заголовок : Rus
Язык : Russian
Аудио #2
Идентификатор : 3
Формат : AC-3
Формат/Информация : Audio Coding 3
Расширение режима : CM (complete main)
Параметр Endianness формата : Big
Идентификатор кодека : A_AC3
Продолжительность : 1 ч. 52 м.
Вид битрейта : Постоянный
Битрейт : 640 Кбит/сек
Каналы : 6 каналов
Расположение каналов : Front: L C R, Side: L R, LFE
Частота : 48,0 КГц
Метод сжатия : С потерями
Размер потока : 516 Мбайт (6%)
Заголовок : Eng
Язык : English
Текст #1
Идентификатор : 4
Формат : UTF-8
Идентификатор кодека : S_TEXT/UTF8
Идентификатор кодека/Информация : UTF-8 Plain Text
Заголовок : Rus
Язык : Russian
Текст #2
Идентификатор : 5
Формат : UTF-8
Идентификатор кодека : S_TEXT/UTF8
Идентификатор кодека/Информация : UTF-8 Plain Text
Заголовок : Eng
Язык : English
Меню
00:00:00.000 : en:Quarantine Procedures
00:02:56.468 : en:Search and Destroy
00:10:58.325 : en:Welcome to the Ark
00:16:13.598 : en:Going In
00:21:22.365 : en:Superhuman
00:25:32.365 : en:Contact!
00:33:44.773 : en:Something's Weird
00:38:19.506 : en:Man Down
00:44:11.066 : en:What Is It?
00:50:56.554 : en:No Escape
00:55:31.829 : en:One of Them
01:00:13.193 : en:Advanced Weapons
01:08:22.182 : en:Genetic Mutation
01:13:57.934 : en:Seeking Evil
01:17:57.757 : en:If It Breaths, Kill It
01:21:44.775 : en:By Any Means Necessary
01:27:40.965 : en:Game On
01:35:07.327 : en:Last Man Standing
01:39:28.380 : en:Faithful to the Core
01:43:51.684 : en:Almost Home (End Titles)

x264

x264 [info]: frame I:1207 Avg QP:11.41 size:132336
x264 [info]: frame P:48776 Avg QP:14.62 size: 67068
x264 [info]: frame B:112170 Avg QP:16.33 size: 34040
x264 [info]: consecutive B-frames: 4.7% 18.7% 8.5% 28.4% 14.7% 18.3% 3.7% 2.4% 0.8%
ЦитатаAlexKa писал:Рип без артефактов.
http://screenshotcomparison.com/comparison/167690
[Профиль] [ЛС]
Показать сообщения:    

Текущее время: Сегодня 11:52

Часовой пояс: GMT



Вы не можете начинать темы
Вы не можете отвечать на сообщения
Вы не можете редактировать свои сообщения
Вы не можете удалять свои сообщения
Вы не можете голосовать в опросах
Вы не можете прикреплять файлы к сообщениям
Вы не можете скачивать файлы