Думай как собака / Think Like a Dog (2020) WEB-DL 2160p | 4K | HDR | iTunes

 
Author Message

BOSS ®

Gender:

Longevity: 6 years

Posts: 14809

Location: ODESSA



: 22 ()

Mega Seeder 1 (1) Top Keeper 2 (1) Top Releaser 3 (1)
Торрент-статистика

Post 17-Oct-2020 19:04

[Quote]

Информация о фильме
Название: Думай как собака
Оригинальное название: Think Like a Dog
Год выхода: 2020
Жанр: Фантастика, драма, комедия, семейный
Режиссер: Джил Джангер
В ролях: Гэбриел Бейтман, Джош Дюамель, Меган Фокс, Тодд Стэшвик, Мэдисон Хорчер, Хоу Минхао, Исаак Ванг, Диллон Альф, Билли Джонстон, Кунал Нэйэр
О фильме: В ходе научного эксперимента 12-летний вундеркинд Оливер устанавливает телепатическую связь с любимым и, как оказалось, очень умным псом Генри. Благодаря подсказкам собаки парню удается решать проблемы в школе, дома и даже с девочками…

Выпущено: США, Великобритания, Китай / Arboretum Productions, M Star International
Продолжительность: 01:30:55
Озвучивание: Дублированное | iTunes
Файл
Качество: WEB-DL 2160p
Видео: MPEG-H HEVC HDR Video, 17.8 Mb/s, 3840х2160
Аудио #1: Russian: 48 kHz, AC3 Dolby Digital, 3/2 (L, C, R, l, r) + LFE ch, ~384 Kbps | iTunes
Аудио #2: English: 48 kHz, DTS-HD Master Audio, 3/2 (L, C, R, l, r) + LFE ch, ~3641 Kbps | Original
Субтитры: English
Дополнительно: Сохранены оригинальные чаптеры.
Релиз от:

MediaInfo:

Video
ID: 1
Format: HEVC
Format/Info: High Efficiency Video Coding
Format profile: Main 10@L5.1@Main
HDR format: SMPTE ST 2086, HDR10 compatible
Codec ID: V_MPEGH/ISO/HEVC
Duration: 1 h 30 min
Bit rate: 17.8 Mb/s
Width: 3 840 pixels
Height: 2 160 pixels
Display aspect ratio: 16:9
Frame rate mode: Constant
Frame rate: 23.976 (24000/1001) FPS
Original frame rate: 23.976 (23976/1000) FPS
Color space: YUV
Chroma subsampling: 4:2:0
Bit depth: 10 bits
Bits/(Pixel*Frame): 0.090
Stream size: 11.3 GiB (82%)
Title: THINK_LIKE_A_DOG_2020_WEB-DL_2160p_HDR_BLUEBIRD
Writing library: x265 3.0_RC+11-72188bd2f034:[Linux][GCC 4.9.2][64 bit] 10bit
Encoding settings: cpuid=1111039 / frame-threads=3 / wpp / no-pmode / no-pme / no-psnr / no-ssim / log-level=2 / input-csp=1 / input-res=3840x2160 / interlace=0 / total-frames=0 / level-idc=51 / high-tier=1 / uhd-bd=0 / ref=4 / no-allow-non-conformance / repeat-headers / annexb / no-aud / no-hrd / info / hash=0 / no-temporal-layers / no-open-gop / min-keyint=24 / keyint=48 / gop-lookahead=0 / bframes=3 / b-adapt=0 / no-b-pyramid / bframe-bias=0 / rc-lookahead=15 / lookahead-slices=8 / scenecut=0 / radl=0 / no-splice / no-intra-refresh / ctu=64 / min-cu-size=8 / no-rect / no-amp / max-tu-size=32 / tu-inter-depth=1 / tu-intra-depth=1 / limit-tu=0 / rdoq-level=0 / dynamic-rd=0.00 / no-ssim-rd / signhide / no-tskip / nr-intra=0 / nr-inter=0 / no-constrained-intra / strong-intra-smoothing / max-merge=2 / limit-refs=3 / no-limit-modes / me=1 / subme=2 / merange=57 / temporal-mvp / weightp / no-weightb / no-analyze-src-pics / deblock=0:0 / sao / no-sao-non-deblock / rd=2 / no-early-skip / rskip / fast-intra / no-tskip-fast / no-cu-lossless / no-b-intra / no-splitrd-skip / rdpenalty=0 / psy-rd=2.00 / psy-rdoq=0.00 / no-rd-refine / no-lossless / cbqpoffs=0 / crqpoffs=0 / rc=cbr / bitrate=18000 / qcomp=0.60 / qpstep=4 / stats-write=0 / stats-read=0 / vbv-maxrate=18000 / vbv-bufsize=36000 / vbv-init=0.9 / ipratio=1.40 / pbratio=1.30 / aq-mode=2 / aq-strength=1.00 / cutree / zone-count=0 / no-strict-cbr / qg-size=32 / no-rc-grain / qpmax=69 / qpmin=0 / no-const-vbv / sar=1 / overscan=0 / videoformat=5 / range=0 / colorprim=9 / transfer=16 / colormatrix=9 / chromaloc=0 / display-window=0 / master-display=G(13250, 34500)B(7500, 3000)R(34000, 16000)WP(15635, 16450)L(10000000, 10) / max-cll=998, 534 / min-luma=0 / max-luma=1023 / log2-max-poc-lsb=8 / vui-timing-info / vui-hrd-info / slices=1 / no-opt-qp-pps / no-opt-ref-list-length-pps / no-multi-pass-opt-rps / scenecut-bias=0.05 / no-opt-cu-delta-qp / no-aq-motion / hdr / no-hdr-opt / no-dhdr10-opt / no-idr-recovery-sei / analysis-reuse-level=5 / scale-factor=0 / refine-intra=0 / refine-inter=0 / refine-mv=0 / refine-ctu-distortion=0 / no-limit-sao / ctu-info=0 / no-lowpass-dct / refine-analysis-type=0 / copy-pic=1 / max-ausize-factor=1.0 / no-dynamic-refine / no-single-sei / no-hevc-aq / qp-adaptation-range=1.00
Default: Yes
Forced: No
Color range: Limited
Color primaries: BT.2020
Transfer characteristics: PQ
Matrix coefficients: BT.2020 non-constant
Mastering display color pri: Display P3
Mastering display luminance: min: 0.0010 cd/m2, max: 1000 cd/m2
Maximum Content Light Level: 998 cd/m2
Maximum Frame-Average Light: 534 cd/m2
Audio #1
ID: 2
Format: AC-3
Format/Info: Audio Coding 3
Commercial name: Dolby Digital
Codec ID: A_AC3
Duration: 1 h 30 min
Bit rate mode: Constant
Bit rate: 384 kb/s
Channel(s): 6 channels
Channel layout: L R C LFE Ls Rs
Sampling rate: 48.0 kHz
Frame rate: 31.250 FPS (1536 SPF)
Compression mode: Lossy
Stream size: 250 MiB (2%)
Title: [DUB] DD 5.1 @ 384 kbps (iTunes)
Language: Russian
Service kind: Complete Main
Default: Yes
Forced: No
Audio #2
ID: 3
Format: DTS XLL
Format/Info: Digital Theater Systems
Commercial name: DTS-HD Master Audio
Codec ID: A_DTS
Duration: 1 h 30 min
Bit rate mode: Variable
Bit rate: 3 641 kb/s
Channel(s): 6 channels
Channel layout: C L R Ls Rs LFE
Sampling rate: 48.0 kHz
Frame rate: 93.750 FPS (512 SPF)
Bit depth: 24 bits
Compression mode: Lossless
Stream size: 2.31 GiB (17%)
Title: [ORIGINAL] DTS-HD MA 5.1 @ 3641 kbps
Language: English
Default: No
Forced: No
Text
ID: 4
Format: UTF-8
Codec ID: S_TEXT/UTF8
Codec ID/Info: UTF-8 Plain Text
Duration: 1 h 25 min
Bit rate: 81 b/s
Count of elements: 1607
Stream size: 51.0 KiB (0%)
Title: Full-length
Language: English
Default: No
Forced: No
Menu
00:00:00.000: en:Глава 01
00:06:29.222: en:Глава 02
00:11:26.102: en:Глава 03
00:15:10.492: en:Глава 04
00:20:36.276: en:Глава 05
00:24:44.941: en:Глава 06
00:30:44.259: en:Глава 07
00:39:13.559: en:Глава 08
00:45:20.718: en:Глава 09
00:51:45.602: en:Глава 10
00:57:39.581: en:Глава 11
00:59:33.778: en:Глава 12
01:06:02.458: en:Глава 13
01:10:47.409: en:Глава 14
01:13:45.629: en:Глава 15
01:21:52.741: en:Глава 16

Скриншоты

[Profile] [PM]
Display posts from previous:    

The time now is: Today 10:38

All times are GMT



You cannot post new topics in this forum
You cannot reply to topics in this forum
You cannot edit your posts in this forum
You cannot delete your posts in this forum
You cannot vote in polls in this forum
You cannot attach files in this forum
You cannot download files in this forum