Дубровский (Александр Вартанов, Кирилл Михановский) [2014, Россия, драма, BDRip 1080p] Original (Rus) + Sub (Rus, Eng)

 
Автор Сообщение

reversefile ®

Пол:

Стаж: 4 года 5 месяцев

Сообщений: 842

Откуда: ReverseFile.org



Награды: Нет

Торрент-статистика

Создавать темы 13-Авг-2014 18:27

[Цитировать]

Дубровский
Выпущено: Россия, «ТВИНДИ»
Жанр: драма
Год выпуска: 2014
Продолжительность: 02:10:28
Субтитры: русские (forced), английские
Навигация по главам: есть
Режиссер: Александр Вартанов, Кирилл Михановский
В ролях: Данила Козловский, Клавдия Коршунова, Юрий Цурило, Александр Мезенцев, Игорь Гордин, Дмитрий Поднозов, Любовь Сергеева, Никита Тезин, Евгений Сахаров, Валерий Скорокосов, Валерий Гончар, Владимир Терещенко, Ирина Жерякова, Алексей Маслодудов, Стас Михайлов, Елена Дудина, Леонсия Эрденко, Юлия Рогачкова, Александр Усердин, Константин Галдаев, Дарья Коробова, Александр Тараньжин, Александр Ковалёв, Татьяна Корабельщикова, Алексей Агрызков, Мария Федосова, Валерий Опёнкин, Роберт Вааб, Людмила Тимченко, Станислав Тимченко, Артем Кобзев, Евгений Вакунов, Вячеслав Чулюкин, Евгений Никоноров, Николай Ломтев, Андрей Харыбин, Александр Жуков, Роза Рафикова, Александр Никольский, Евгений Савельев, Виктор Бабич, Юрис Лауциньш
Описание: Владимир Дубровский — успешный столичный юрист и завсегдатай модных клубов, Маша Троекурова — выпускница английского колледжа и нежная дочь... Хозяева собственных судеб, они едва ли похожи на героев Пушкина. Но внезапная ссора их отцов решительно меняет жизнь Владимира и Маши – они погружаются в реальность, где действуют совсем другие законы...

Релиз: fanatus
Качество видео: BDRip 1080p
Исходник: Blu-ray disc (DUBROVSKIY_BLUEBIRD)
Контейнер: MKV
Видео: MPEG-4 AVC, 10.3 Mbps, 1920x1038 (1.85:1), 24.000 fps, 0.215 bit/pixel
Аудио: DTS, 6 ch, 48 kHz, 1510 kbps

MediaInfo

General
Unique ID : 214630933577637155377045176056940219462 (0xA1786A08CECA190CBD62D2097C6A4C46)
Complete name : F:\Dubrovskij.2014.x264.BDRip.1080p.fanatus.mkv
Format : Matroska
Format version : Version 2
File size : 10.8 GiB
Duration : 2h 10mn
Overall bit rate : 11.8 Mbps
Movie name : Dubrovskij (2014) - fanatus
Encoded date : UTC 2014-04-20 14:43:52
Writing application : mkvmerge v3.4.0 ('Rapunzel') сборка от May 15 2010 09:38:20
Writing library : libebml v0.8.0 + libmatroska v0.9.0
Video
ID : 1
Format : AVC
Format/Info : Advanced Video Codec
Format profile : High@L4.1
Format settings, CABAC : Yes
Format settings, ReFrames : 4 frames
Codec ID : V_MPEG4/ISO/AVC
Duration : 2h 10mn
Bit rate : 10.3 Mbps
Width : 1 920 pixels
Height : 1 038 pixels
Display aspect ratio : 1.85:1
Frame rate : 24.000 fps
Color space : YUV
Chroma subsampling : 4:2:0
Bit depth : 8 bits
Scan type : Progressive
Bits/(Pixel*Frame) : 0.215
Stream size : 9.17 GiB (85%)
Title : Dubrovskij (2014) BDRip 1080p
Writing library : x264 core 142 r2409+42 04be48a tMod [8-bit@all X86]
Encoding settings : cabac=1 / ref=4 / deblock=1:-3:-3 / analyse=0x3:0x113 / me=tesa / subme=11 / psy=1 / fade_compensate=0.00 / psy_rd=0.80:0.00 / mixed_ref=1 / me_range=48 / chroma_me=1 / trellis=2 / 8x8dct=1 / cqm=0 / deadzone=21,11 / fast_pskip=0 / chroma_qp_offset=-2 / threads=16 / lookahead_threads=4 / sliced_threads=0 / nr=0 / decimate=0 / interlaced=0 / bluray_compat=0 / constrained_intra=0 / fgo=0 / bframes=10 / b_pyramid=2 / b_adapt=2 / b_bias=0 / direct=3 / weightb=1 / open_gop=0 / weightp=2 / keyint=240 / keyint_min=24 / scenecut=40 / intra_refresh=0 / rc_lookahead=240 / rc=2pass / mbtree=0 / bitrate=10300 / ratetol=1.0 / qcomp=0.65 / qpmin=0:0:0 / qpmax=69:69:69 / qpstep=4 / cplxblur=20.0 / qblur=0.5 / vbv_maxrate=50000 / vbv_bufsize=62500 / nal_hrd=none / filler=0 / ip_ratio=1.35 / pb_ratio=1.25 / aq=4:0.80 / aq-sensitivity=10.00 / aq-factor=1.00:1.00:1.00 / aq2=0 / aq3=0
Language : Russian
Default : Yes
Forced : No
Audio
ID : 2
Format : DTS
Format/Info : Digital Theater Systems
Codec ID : A_DTS
Duration : 2h 10mn
Bit rate mode : Constant
Bit rate : 1 510 Kbps
Channel(s) : 6 channels
Channel positions : Front: L C R, Side: L R, LFE
Sampling rate : 48.0 KHz
Bit depth : 24 bits
Compression mode : Lossy
Stream size : 1.38 GiB (13%)
Title : Original
Language : Russian
Default : Yes
Forced : No
Text #1
ID : 3
Format : UTF-8
Codec ID : S_TEXT/UTF8
Codec ID/Info : UTF-8 Plain Text
Title : Forced
Language : Russian
Default : Yes
Forced : Yes
Text #2
ID : 4
Format : UTF-8
Codec ID : S_TEXT/UTF8
Codec ID/Info : UTF-8 Plain Text
Title : Full
Language : English
Default : No
Forced : No
Menu
00:00:00.000 : en:Chapter 01
00:01:54.291 : en:Chapter 02
00:14:32.875 : en:Chapter 03
00:27:59.333 : en:Chapter 04
00:43:19.291 : en:Chapter 05
01:00:07.625 : en:Chapter 06
01:15:44.833 : en:Chapter 07
01:33:29.291 : en:Chapter 08
01:52:33.875 : en:Chapter 09

x264 [info]

x264 [info]: 1920x1038p 1:1 @ 24/1 fps (cfr)
x264 [info]: frame I:1086 Avg QP:13.64 size:190679
x264 [info]: frame P:51654 Avg QP:16.90 size: 87786
x264 [info]: frame B:135131 Avg QP:18.36 size: 39473
x264 [info]: consecutive B-frames: 5.8% 8.5% 8.9% 24.8% 18.7% 19.7% 9.2% 1.5% 2.1% 0.4% 0.4%
x264 [info]: mb I I16..4: 12.5% 70.4% 17.1%
x264 [info]: mb P I16..4: 4.2% 22.1% 2.1% P16..4: 27.0% 26.5% 7.1% 0.0% 0.0% skip:10.9%
x264 [info]: mb B I16..4: 0.8% 2.9% 0.2% B16..8: 30.2% 18.7% 3.2% direct: 9.5% skip:34.4% L0:41.7% L1:44.7% BI:13.6%
x264 [info]: 8x8 transform intra:76.2% inter:61.6%
x264 [info]: direct mvs spatial:98.9% temporal:1.1%
x264 [info]: coded y,uvDC,uvAC intra: 71.4% 79.0% 52.8% inter: 30.8% 33.5% 12.7%
x264 [info]: i16 v,h,dc,p: 25% 15% 5% 55%
x264 [info]: i8 v,h,dc,ddl,ddr,vr,hd,vl,hu: 11% 9% 13% 9% 11% 12% 11% 12% 13%
x264 [info]: i4 v,h,dc,ddl,ddr,vr,hd,vl,hu: 17% 16% 11% 6% 12% 12% 10% 8% 9%
x264 [info]: i8c dc,h,v,p: 38% 26% 20% 17%
x264 [info]: Weighted P-Frames: Y:2.3% UV:1.7%
x264 [info]: ref P L0: 57.1% 9.1% 22.5% 9.9% 1.4% 0.0%
x264 [info]: ref B L0: 86.8% 10.6% 2.6%
x264 [info]: ref B L1: 93.5% 6.5%
x264 [info]: kb/s:10297.09
x264 [info]: encoded 187871 frames, 1.438 fps, 10297.09 kb/s, 9608.9 MB
x264 [info]: ended at Sat Apr 19 17:41:10 2014
x264 [info]: encoding duration 36:17:49

Скриншот c названием фильма

Скриншоты

Source vs Rip




[Профиль] [ЛС]
Показать сообщения:    

Текущее время: Сегодня 10:28

Часовой пояс: GMT



Вы не можете начинать темы
Вы не можете отвечать на сообщения
Вы не можете редактировать свои сообщения
Вы не можете удалять свои сообщения
Вы не можете голосовать в опросах
Вы не можете прикреплять файлы к сообщениям
Вы не можете скачивать файлы