Дублёр (Евгений Абызов) [2012, комедия, DVD9]

 
Автор Сообщение

TorrentFilm ®

Пол:

Стаж: 2 года

Сообщений: 7741



Награды: Нет

Торрент-статистика

Создавать темы 02-Янв-2016 00:08

[Цитировать]

Дублёр-- Страна: Россия
Жанр: комедия
Год выпуска: 2012
Продолжительность: 01:59:53--Перевод: Не требуется
Субтитры: нет
Оригинальная аудиодорожка: английский
Режиссер: Евгений Абызов
В ролях:
Александр Ревва, Кристина Асмус, Дмитрий Хрусталев, Людмила Артемьева, Татьяна Орлова, Ксения Буравская, Варвара Малкова, Александра Кимаева, Евгений Шиманович, Алексей Рязанцев
--Описание:
Главный герой нашей истории - успешный актер, звезда шоу-бизнеса Игорь Успенский. Его жизнь - сплошные съемки, концерты, презентации, корпоративы, интервью и светские тусовки. Он вынужден «крутиться» день и ночь, у него нет выходных и праздников. А его очаровательная жена и прекрасная дочка видят его в лучшем случае поздно ночью, когда он приезжает домой, чтобы поспать хотя бы пару часов. Но все труды не проходят даром. Игорь очень популярен и однажды его кандидатуру выдвигают на премию «Человек года» - теперь ему нужно еще больше времени, чтобы победить главного конкурента - певца Михаила Стасова, главные хиты которого свели с ума всех женщин России...
В подмосковном городе живет Сева, человек, чрезвычайно похожий на Игоря Успенского. Он работает массажистом в салоне красоты, живет вдвоем с собакой по имени Сергей Валерьевич, абсолютно доволен своей жизнью и не признает сходства со звездой. Однажды директор салона убеждает Севу сняться в рекламном ролике, где САМ Игорь Успенский (конечно, изображаемый Севой) делает массаж клиентам салона. Ролик оказывается в интернете - так о своем двойнике узнает Успенский. Понимая, что времени ни на что не хватает, Успенский решает не подавать в суд на салон, а предложить Севе стать своим Дублером. Тому лишь нужно посетить несколько корпоративов и светских тусовок в образе Игоря Успенского. Сева принимает предложение и... попадает в незнакомый мир шоу-бизнеса, где его ждут невероятные приключения...
-- -Тип релиза: DVD9
Контейнер: DVD-Video
Видео: PAL 16:9 (720x576) VBR
Аудио : Russian (Dolby AC3, 6 ch, 448 Kbps, 48.0 KHz)

Скриншоты


DVDinfo

Title: Dubler.2013.DVD-9
Size: 5.86 Gb ( 6 142 040,00 KBytes ) - DVD-9
Enabled regions: 1, 2, 3, 4, 5, 6, 7, 8
VTS_01 :
Play Length: 00:00:15
Video: PAL 16:9 (720x576) VBR, Auto Letterboxed
VTS_02 :
Play Length: 00:00:07
Video: PAL 16:9 (720x576) VBR, Auto Letterboxed
Audio:
Not specified (MPEG1, 2 ch)
VTS_03 :
Play Length: 00:14:29
Video: PAL 16:9 (720x576) VBR, Auto Letterboxed
Audio:
Russian (Dolby AC3, 2 ch)
VTS_04 :
Play Length: 01:20:15
Video: PAL 16:9 (720x576) VBR, Auto Pan&Scan, Auto Letterboxed
Audio:
Russian (Dolby AC3, 6 ch)

Media Info

Общее
Полное имя : E:\Dubler.2013.O.DVD-9\VIDEO_TS\VTS_04_4.VOB
Формат : MPEG-PS
Размер файла : 1024 Мбайт
Продолжительность : 15 м.
Режим общего битрейта : Переменный
Общий поток : 9101 Кбит/сек
Видео
Идентификатор : 224 (0xE0)
Формат : MPEG Video
Версия формата : Version 2
Профиль формата : Main@Main
Параметр BVOP формата : Да
Параметр матрицы формата : По умолчанию
Параметр GOP формата : M=3, N=12
Продолжительность : 15 м.
Вид битрейта : Переменный
Битрейт : 8472 Кбит/сек
Максимальный битрейт : 9000 Кбит/сек
Ширина : 720 пикселей
Высота : 576 пикселей
Соотношение сторон : 16:9
Частота кадров : 25,000 кадров/сек
Стандарт вещания : PAL
Цветовое пространство : YUV
Субдискретизация насыщенности : 4:2:0
Битовая глубина : 8 бит
Тип развёртки : Прогрессивная
Порядок развёртки : Нижнее поле первое
Метод сжатия : С потерями
Бит/(Пиксели*Кадры) : 0.817
Временной код первого кадра : 00:47:10:24
Оригинал временного кода : Group of pictures header
Размер потока : 953 Мбайт (93%)
Аудио
Идентификатор : 189 (0xBD)-128 (0x80)
Формат : AC-3
Формат/Информация : Audio Coding 3
Расширение режима : CM (complete main)
Параметр Endianness формата : Big
Режим смешивания : DVD-Video
Продолжительность : 15 м.
Вид битрейта : Постоянный
Битрейт : 448 Кбит/сек
Каналы : 6 каналов
Расположение каналов : Front: L C R, Side: L R, LFE
Частота : 48,0 КГц
Битовая глубина : 16 бит
Метод сжатия : С потерями
Задержка видео : -288 мс.
Размер потока : 50,4 Мбайт (5%)
Меню
[Профиль] [ЛС]
Показать сообщения:    

Текущее время: Сегодня 22:41

Часовой пояс: GMT



Вы не можете начинать темы
Вы не можете отвечать на сообщения
Вы не можете редактировать свои сообщения
Вы не можете удалять свои сообщения
Вы не можете голосовать в опросах
Вы не можете прикреплять файлы к сообщениям
Вы не можете скачивать файлы