Дублёры / Dublerzy (Марцин Зембиньски / Marcin Ziebinski) [2006, Польша, комедия, криминальный, DVDRip] MVO (Еврокино)

 
Автор Сообщение

TorrentFilm ®

Пол:

Стаж: 2 года

Сообщений: 7741



Награды: Нет

Торрент-статистика

Создавать темы 01-Фев-2015 00:01

[Цитировать]

Дублёры / Dublerzy
Страна: Польша
Жанр: комедия, криминальный
Год выпуска: 2006
Продолжительность: 01:50:51
Перевод: Профессиональный (многоголосый закадровый) Еврокино
Cубтитры: нет
Режиссер: Марцин Зембиньски / Marcin Ziebinski
В ролях: Анджей Грабовский, Роберт Гонера, Збигнев Замаховский, Бронислав Вроцлавский, Кристина Фельдман, Конрад Имеля, Марек Перепечко, Кшиштоф Ковалевский, Тадеуш Хук, Кшиштоф Кершновский, Мария Пакульнис, Магдалена Рембач, Мирослав Зброевич, Ежи Бончак, Лех Дыблик, Рафал Рутковский, Вальдемар Облоза, Артур Дзюрман, Наталья Рыбицкая, Гражина Зелиньская, Михал Пеля, Мацей Ферляк, Виолетта Арляк, Кристина Колодзейчик, Анна Коженецкая, Аркадиуш Глоговский, Януш Хабёр, Беата Хрусьциньская, Александра Кисё, Бернард Керат, Магдалена Червиньская, Бартломей Бобровский, Хенрика Енджеевская, Ярослав Новиковский
Описание: Леона и Макса отличает почти все. Первый - это симпатичный неудачник, учитель латыни, бывший хиппи. Второй - это мачо, натренированный полицейский, увлечённый элекронными гаджетами. Но они случайно встречаются и впутываются в сенсационную интригу. И конечно, они вынуждены вместе справиться с новой ситуацией…
Доп. информация: За дорожку с канала Еврокино спасибо alenavova.
За синхрон спасибо xelon2006
Я выступил инициатором всего этого дела.

Релиз
Сэмпл: https://yadi.sk/i/NGa58o8geLteh
Качество видео: DVDRip
Формат видео: AVI
Видео: 640x272 (2.35:1), 25 fps, XviD build 50 ~971 kbps avg, 0.22 bit/pixel
Аудио: 48 kHz, AC3 Dolby Digital, 2/0 (L,R) ch, ~192 kbps

MediaInfo

Дублёры - Dublerzy [by Edich2].avi
Format : AVI
Format/Info : Audio Video Interleave
File size : 930 MiB
Duration : 1h 50mn
Overall bit rate : 1 173 Kbps
Writing application : VirtualDubMod 1.5.10.1 (build 2439/release)
Writing library : VirtualDub build 35491/release
Video
ID : 0
Format : MPEG-4 Visual
Format profile : Advanced Simple@L5
Format settings, BVOP : 1
Format settings, QPel : No
Format settings, GMC : No warppoints
Format settings, Matrix : Custom
Codec ID : XVID
Codec ID/Hint : XviD
Duration : 1h 50mn
Bit rate : 971 Kbps
Width : 640 pixels
Height : 272 pixels
Display aspect ratio : 2.35:1
Frame rate : 25.000 fps
Color space : YUV
Chroma subsampling : 4:2:0
Bit depth : 8 bits
Scan type : Progressive
Compression mode : Lossy
Bits/(Pixel*Frame) : 0.223
Stream size : 770 MiB (83%)
Writing library : XviD 1.2.1 (UTC 2008-12-04)
Audio
ID : 1
Format : AC-3
Format/Info : Audio Coding 3
Mode extension : CM (complete main)
Format settings, Endianness : Big
Codec ID : 2000
Duration : 1h 50mn
Bit rate mode : Constant
Bit rate : 192 Kbps
Channel(s) : 2 channels
Channel positions : Front: L R
Sampling rate : 48.0 KHz
Bit depth : 16 bits
Compression mode : Lossy
Stream size : 152 MiB (16%)
Alignment : Aligned on interleaves
Interleave, duration : 40 ms (1.00 video frame)
Interleave, preload duration : 512 ms

Скриншоты



[Профиль] [ЛС]

Создавать темы 06-Авг-2015 22:47 (спустя 6 месяцев 5 дней)

Топик был перенесен из форума Фильмы до 2014 года в форум Фильмы до 2012 года
sergej644
 
Показать сообщения:    

Текущее время: Сегодня 18:51

Часовой пояс: GMT



Вы не можете начинать темы
Вы не можете отвечать на сообщения
Вы не можете редактировать свои сообщения
Вы не можете удалять свои сообщения
Вы не можете голосовать в опросах
Вы не можете прикреплять файлы к сообщениям
Вы не можете скачивать файлы