Дрянная Девчонка / Dirty Girl (Абе Сильвия) [2010, США, драма, комедия, BDRip]

 
Автор Сообщение

AleksSin ®

Пол:

Стаж: 6 лет

Сообщений: 218



Награды: 4 (Подробнее)

Mega Seeder 3 (Количество: 1) Mega Seeder 4 (Количество: 1) Mega Seeder 1 (Количество: 1)
Торрент-статистика

Создавать темы 25-Мар-2015 15:32

[Цитировать]

Дрянная Девчонка / Dirty Girl«Не молчи!» Страна: США
Жанр: драма, комедия
Год выпуска: 2010
Продолжительность: 01:34:17
Перевод: Профессиональное (многоголосое) [лицензия]
Cубтитры: нет
Режиссер: Абе Сильвия
В ролях: Джуно Темпл, Милла Йовович, Джереми Дозье, Зэк Лэсри, Джонатан Славин, Марселла Ленц-Поуп, Уильям Хорвич, Гэри Граббс, Дебора Тикер, Натали Аменула
Описание: Это история забавной и немного странной дружбы между хулиганкой и прогульщицей Даниэль и чувствительным замкнутым геем Кларком. На дворе 1987 год, и они решают сбежать из скучной Оклахомы в Калифорнию на встречу своим мечтам. Дэниель надеется разыскать отца, которого никогда не видела, а Кларк, напротив, хочет спрятаться от своих родителей, которые угрожают отправить его в военную школу. В пути их, как водится, ожидает много приключений, благодаря которым они узнают цену истинной дружбы.

Качество видео: BDRip (Исх. BD-Remux 1080p)
Формат видео: AVI
Видео кодек: XviD
Аудио кодек: МР3
Видео: 688x288 (2.39:1), 23.976 fps, XviD build 73 ~1023 kbps avg, 0.22 bit/pixel
Аудио: 48 kHz, MPEG Layer 3, 2 ch, ~128.00 kbps avg

MediaInfo

Общее
Полное имя : S:\Фильмы\Дрянная девчонка. 2010. BDRip (AleksSin).avi
Формат : AVI
Формат/Информация : Audio Video Interleave
Размер файла : 744 Мбайт
Продолжительность : 1 ч. 29 м.
Общий поток : 1160 Кбит/сек
Программа кодирования : VirtualDubMod 1.5.10.3 | www.virtualdub-fr.org || (build 2550/release)
Библиотека кодирования : VirtualDubMod build 2550/release
Видео
Идентификатор : 0
Формат : MPEG-4 Visual
Профиль формата : Advanced Simple@L5
Параметр BVOP формата : 1
Параметр QPel формата : Нет
Параметр GMC формата : Без точки перехода
Параметр матрицы формата : Выборочная
Идентификатор кодека : XVID
Идентификатор кодека/Подсказка : XviD
Продолжительность : 1 ч. 29 м.
Битрейт : 1023 Кбит/сек
Ширина : 688 пикс.
Высота : 288 пикс.
Соотношение сторон : 2,40:1
Частота кадров : 23,976 кадр/сек
Цветовое пространство : YUV
Подвыборка цветности : 4:2:0
Битовая глубина : 8 бит
Тип развёртки : Прогрессивная
Метод сжатия : С потерями
Бит/(Пиксели*Кадры) : 0.215
Размер потока : 656 Мбайт (88%)
Библиотека кодирования : XviD 73
Аудио
Идентификатор : 1
Формат : MPEG Audio
Версия формата : Version 1
Профиль формата : Layer 3
Идентификатор кодека : 55
Идентификатор кодека/Подсказка : MP3
Продолжительность : 1 ч. 29 м.
Вид битрейта : Постоянный
Битрейт : 128 Кбит/сек
Каналы : 2 канала
Частота : 48,0 КГц
Метод сжатия : С потерями
Размер потока : 81,8 Мбайт (11%)
Выравнивание : Соединение по промежуткам
Продолжительность промежутка : 42 мс. (1,00 видеокадр)
Время предзагрузки промежутка : 504 ms
Библиотека кодирования : LAME3.99r
Настройки программы : -m s -V 4 -q 2 -lowpass 17 -b 128

Скриншоты

[Профиль] [ЛС]
Кто просматривает тему:

Показать сообщения:    

Текущее время: Сегодня 20:47

Часовой пояс: GMT



Вы не можете начинать темы
Вы не можете отвечать на сообщения
Вы не можете редактировать свои сообщения
Вы не можете удалять свои сообщения
Вы не можете голосовать в опросах
Вы не можете прикреплять файлы к сообщениям
Вы не можете скачивать файлы