Друзья / Friends [S10] (2003-2004) BDRip-AVC | iPad

 
Автор Сообщение

Белочка ®

Пол:

Стаж: 5 лет 1 месяц

Сообщений: 2089



Награды: 1 (Подробнее)

Girls (Количество: 1)
Торрент-статистика

Создавать темы 01-Ноя-2014 23:26

[Цитировать]

Информация о фильме
Название: Друзья
Оригинальное название: Friends
Год выхода: 2003-2004
Жанр: Sitcom
Режиссер: David Crane, Marta Kauffman
В ролях: Jennifer Aniston, Courteney Cox Arquette, Lisa Kudrow, Matt LeBlanc, Matthew Perry, David Schwimmer
О фильме:
Главные герои — шестеро друзей — Рейчел, Моника, Фиби, Джоуи, Чендлер и Росс. Три девушки и три парня, которые дружат, живут по соседству, вместе убивают время и противостоят жестокой реальности, делятся своими секретами и иногда очень сильно влюбляются.
Сериал признан одним из лучших комедийных сериалов в истории американского телевидения и стал одним из наиболее заметных проектов 1990-х годов. Сама постановка и творческая группа получили множество наград, в том числе шесть премий «Эмми» и премию «Золотой глобус».
Страна: США
Студия: Канал NBC
Продолжительность: 7 ч 25 мин (17 серий)
Файл
Формат: m4v
Качество: BDRip-AVC
Видео: H.264, 1024x576 (16:9), ∼2900 kbps, 23,976 fps
Звук: AAC, 2 channels, 48.0 KHz, 160 kbps VBR
Аудио 1: Русский - профессиональный многоголосый закадровый
Аудио 2: Украинский - профессиональный многоголосый закадровый
Аудио 3: Английский - оригинал
Субтитры: русские, английские
Метатэги: прописаны
Навигация по главам: есть
Раздача будет полезна пользователям iOS и OS X платформ.
При просмотре на Windows рекомендую пользоваться iTunes или VLC media player.

Скриншоты

MI & x264 log

1 серия
x264 [info]: frame I:392 Avg QP:15.35 size: 82296 PSNR Mean Y:49.27 U:52.20 V:53.78 Avg:50.17 Global:49.00
x264 [info]: frame P:8105 Avg QP:18.75 size: 29166 PSNR Mean Y:45.37 U:49.53 V:51.21 Avg:46.45 Global:46.17
x264 [info]: frame B:33673 Avg QP:21.66 size: 8025 PSNR Mean Y:43.91 U:49.20 V:51.18 Avg:45.14 Global:44.71
x264 [info]: consecutive B-frames: 1.3% 0.4% 2.6% 14.8% 23.7% 51.3% 4.3% 0.6% 0.4% 0.0% 0.1% 0.4%
x264 [info]: mb I I16..4: 4.5% 79.6% 15.9%
x264 [info]: mb P I16..4: 1.0% 8.8% 1.4% P16..4: 40.9% 28.4% 14.1% 0.0% 0.0% skip: 5.4%
x264 [info]: mb B I16..4: 0.1% 0.6% 0.1% B16..8: 41.3% 9.7% 2.5% direct: 5.5% skip:40.3% L0:41.7% L1:45.4% BI:12.8%
x264 [info]: 8x8 transform intra:78.9% inter:59.9%
x264 [info]: coded y,uvDC,uvAC intra: 88.3% 78.0% 48.4% inter: 25.2% 14.3% 1.4%
x264 [info]: i16 v,h,dc,p: 54% 9% 6% 30%
x264 [info]: i8 v,h,dc,ddl,ddr,vr,hd,vl,hu: 16% 8% 6% 8% 13% 14% 11% 12% 11%
x264 [info]: i4 v,h,dc,ddl,ddr,vr,hd,vl,hu: 13% 7% 3% 9% 15% 16% 13% 13% 12%
x264 [info]: i8c dc,h,v,p: 37% 21% 26% 16%
x264 [info]: Weighted P-Frames: Y:1.4% UV:0.8%
x264 [info]: ref P L0: 42.4% 10.9% 22.0% 6.1% 6.5% 3.6% 4.2% 1.8% 2.4% 0.1% 0.0%
x264 [info]: ref B L0: 77.9% 11.5% 4.3% 2.4% 1.5% 1.4% 0.7% 0.3%
x264 [info]: ref B L1: 94.3% 5.7%
x264 [info]: SSIM Mean Y:0.9785785 (16.692db)
x264 [info]: PSNR Mean Y:44.239 U:49.296 V:51.206 Avg:45.438 Global:44.978 kb/s:2451.09
General
Format : MPEG-4
Format profile : Base Media / Version 2
Codec ID : mp42
File size : 618 MiB
Duration : 29mn 19s
Overall bit rate mode : Variable
Overall bit rate : 2 947 Kbps
Collection : Friends
Season : 10
Album : Friends, Season 10
Part : 1
Track name : The One After Joey and Rachel Kiss
Track name/Position : 1
Track name/Total : 17
Performer : Friends
Genre : Comedy
ContentType : TV Show
Deion : Still in Barbados after Ross' keynote address, the friends cope with a variety of dilemmas. / The worldwide comedy hit comes to a bittersweet but comic close in its tenth and final season. Nothing is off limits and episodic storylines include Phoebe's marriage to Mike (Paul Rudd), Ross's spray-on tanning trip gone wrong and Emma's first birthday celebrated with a disturbingly inappropriate adult novelty cake. Also this season, Joey tries out some "big words" and even attempts to speak French, Phoebe gives away a hideous painting, Rachel overcomes her fear of swing sets, Phoebe and Mike try to "undonate" a charitable donation, Monica has her hair beaded and, as Rachel contemplates a move to Paris, Monica and Chandler contemplate a move to — gasp! — the suburbs. Featuring great guest stars like Giovanni Ribisi as Phobe's adopted brother, Frank Jr., Greg Kinnear, Anna Faris, Dakota Fanning and Danny DeVito as a sensitive stripper, among others, the landmark, Emmy®-winning sitcom goes out on top!
Recorded date : 2003-09-25
Encoded date : UTC 2014-10-08 06:25:16
Tagged date : UTC 2014-10-10 06:12:12
Cover : Yes
Rating : None
TVNetworkName : NBC
Part_ID : 1001
LongDeion : Still in Barbados after Ross' keynote address, the friends cope with a variety of dilemmas. Ross has kissed his colleague Charlie Wheeler, although she is still officially dating Joey. Joey and Rachel have kissed as well, but they agonize over how to tell Ross. Phoebe's former boyfriend, Mike, has followed Phoebe to the island and proposed marriage to her, despite his being in a relationship with someone else. And Monica has developed really big hair, due to the humidity. Chandler's problem is that he can barely restrain himself from making fun of his wife. Phoebe, Monica and Chandler learn about all the romantic drama by listening through the thin hotel room walls to hear Joey and Rachel's amorous conversation on one side and Ross and Charlie's on the other. Feeling as if he is betraying Joey, Ross seeks him out to confess that he wants to date Charlie.
AppleStoreCountry : United States
AppleStoreCatalogID : 315880278
AlbumTitleID : 166638839
PlayListID : 315709066
ContentRating : us-tv|TV-14|500|
Video #1
ID : 1
Format : AVC
Format/Info : Advanced Video Codec
Format profile : High@L4.0
Format settings, CABAC : Yes
Format settings, ReFrames : 9 frames
Codec ID : avc1
Codec ID/Info : Advanced Video Coding
Duration : 29mn 18s
Bit rate : 2 451 Kbps
Width : 1 024 pixels
Height : 576 pixels
Display aspect ratio : 16:9
Frame rate mode : Variable
Frame rate : 23.976 fps
Minimum frame rate : 23.974 fps
Maximum frame rate : 23.981 fps
Color space : YUV
Chroma subsampling : 4:2:0
Bit depth : 8 bits
Scan type : Progressive
Bits/(Pixel*Frame) : 0.173
Stream size : 514 MiB (83%)
Writing library : x264 core 130 r2273 b3065e6
Encoding settings : cabac=1 / ref=9 / deblock=1:-2:-1 / analyse=0x3:0x113 / me=umh / subme=10 / psy=1 / psy_rd=1.00:0.00 / mixed_ref=1 / me_range=32 / chroma_me=1 / trellis=2 / 8x8dct=1 / cqm=0 / deadzone=21,11 / fast_pskip=1 / chroma_qp_offset=-2 / threads=6 / lookahead_threads=1 / sliced_threads=0 / nr=0 / decimate=1 / interlaced=0 / bluray_compat=0 / constrained_intra=0 / bframes=11 / b_pyramid=2 / b_adapt=2 / b_bias=0 / direct=1 / weightb=1 / open_gop=0 / weightp=2 / keyint=240 / keyint_min=24 / scenecut=40 / intra_refresh=0 / rc_lookahead=40 / rc=crf / mbtree=1 / crf=18.0 / qcomp=0.60 / qpmin=0 / qpmax=69 / qpstep=4 / ip_ratio=1.40 / aq=1:1.00
Language : English
Encoded date : UTC 2014-10-08 06:25:16
Tagged date : UTC 2014-10-08 08:08:02
Color primaries : BT.709
Transfer characteristics : BT.709
Matrix coefficients : BT.709
Video #2
ID : 8
Format : JPEG
Codec ID : jpeg
Duration : 29mn 18s
Bit rate mode : Variable
Bit rate : 988 bps
Width : 640 pixels
Height : 360 pixels
Display aspect ratio : 16:9
Frame rate mode : Variable
Frame rate : 0.003 fps
Minimum frame rate : 0.002 fps
Maximum frame rate : 0.022 fps
Color space : YUV
Chroma subsampling : 4:2:0
Bit depth : 8 bits
Compression mode : Lossy
Bits/(Pixel*Frame) : 1.429
Stream size : 201 KiB (0%)
Language : English
Encoded date : UTC 2014-10-09 13:23:04
Tagged date : UTC 2014-10-09 13:23:05
Audio #1
ID : 2
Format : AAC
Format/Info : Advanced Audio Codec
Format profile : LC
Codec ID : 40
Duration : 29mn 18s
Bit rate mode : Variable
Bit rate : 160 Kbps
Maximum bit rate : 316 Kbps
Channel(s) : 2 channels
Channel positions : Front: L R
Sampling rate : 48.0 KHz
Compression mode : Lossy
Stream size : 33.5 MiB (5%)
Language : Russian
Encoded date : UTC 2014-10-08 06:25:16
Tagged date : UTC 2014-10-08 08:08:01
Audio #2
ID : 3
Format : AAC
Format/Info : Advanced Audio Codec
Format profile : LC
Codec ID : 40
Duration : 29mn 13s
Bit rate mode : Variable
Bit rate : 159 Kbps
Maximum bit rate : 197 Kbps
Channel(s) : 2 channels
Channel positions : Front: L R
Sampling rate : 48.0 KHz
Compression mode : Lossy
Stream size : 33.1 MiB (5%)
Language : Ukrainian
Encoded date : UTC 2014-10-08 06:25:16
Tagged date : UTC 2014-10-08 08:08:01
Audio #3
ID : 4
Format : AAC
Format/Info : Advanced Audio Codec
Format profile : LC
Codec ID : 40
Duration : 29mn 19s
Bit rate mode : Variable
Bit rate : 160 Kbps
Maximum bit rate : 315 Kbps
Channel(s) : 2 channels
Channel positions : Front: L R
Sampling rate : 48.0 KHz
Compression mode : Lossy
Stream size : 33.5 MiB (5%)
Language : English
Encoded date : UTC 2014-10-08 06:25:16
Tagged date : UTC 2014-10-08 08:08:01
Text #1
ID : 6
Format : Timed Text
Muxing mode : sbtl
Codec ID : tx3g
Duration : 29mn 7s
Bit rate mode : Variable
Bit rate : 122 bps
Stream size : 26.0 KiB (0%)
Language : Russian
Encoded date : UTC 2014-10-09 13:22:24
Tagged date : UTC 2014-10-09 13:23:01
Text #2
ID : 7
Format : Timed Text
Muxing mode : sbtl
Codec ID : tx3g
Duration : 29mn 16s
Bit rate mode : Variable
Bit rate : 84 bps
Stream size : 18.1 KiB (0%)
Language : English
Encoded date : UTC 2014-10-09 13:22:24
Tagged date : UTC 2014-10-09 13:23:01
Menu
ID : 5
Codec ID : text
Duration : 29mn 18s
Language : English
Encoded date : UTC 2014-10-08 06:25:16
Tagged date : UTC 2014-10-08 08:08:02
Bit rate mode : CBR
[Профиль] [ЛС]
Показать сообщения:    

Текущее время: Сегодня 02:16

Часовой пояс: GMT



Вы не можете начинать темы
Вы не можете отвечать на сообщения
Вы не можете редактировать свои сообщения
Вы не можете удалять свои сообщения
Вы не можете голосовать в опросах
Вы не можете прикреплять файлы к сообщениям
Вы не можете скачивать файлы