Дружина / Серии: 1-8 из 8 (Михаил Колпахчиев) [2015, Россия, Боевик, история, SATRip]

 
Автор Сообщение

sergej644 ®

Пол:

Стаж: 4 года 11 месяцев

Сообщений: 6046

Откуда: Soviet Union



Награды: Нет

Торрент-статистика

Создавать темы 30-Авг-2015 17:44

[Цитировать]

Дружина Производитель : Россия, ВГТРК
Жанр: Боевик, история
Год выпуска: 2015
Продолжительность: 45 мин.
Cубтитры: нет
Режиссер: Михаил Колпахчиев
В ролях: Сергей Малюгов, Андрей Харабарин, Александр Колесник, Сергей Воробьёв, Александр Эрлих, Геннадий Казачков
Описание: 13-й век. В затерянное в дремучих лесах в небольшое селение прибывает малочисленная дружина — неразговорчивые хмурые воины, про которых говорят, что они понимают язык зверей и умеют заговаривать ветер. Дружине новгородского князя предстоит найти и доставить в Новогород мальчика по имени Александр, которому позже дадут прозвище Невский…
Доп. информация: Релиз группа
Сэмпл
Качество: SATRip
Формат: AVI
Видео кодек: XviD
Аудио кодек: AC3
Видео: 720x400 (1.80:1), 25 fps, XviD build 73 ~1548 kbps avg, 0.22 bit/pixel
Аудио: 48 kHz, AC3 Dolby Digital, 2/0 (L,R) ch, ~192.00 kbps avg

MI

General
Complete name : Y:\раздачи\Дружина.2015.SATRip.RG.Russkie.serialy.&.Files-x\01.Дружина.2015.SATRip.RG.Russkie.serialy.&.Files-x.avi
Format : AVI
Format/Info : Audio Video Interleave
File size : 551 MiB
Duration : 44mn 25s
Overall bit rate : 1 735 Kbps
Writing application : VirtualDubMod 1.5.10.3 | www.virtualdub-fr.org || (build 2550/release)
Writing library : VirtualDubMod build 2550/release
Video
ID : 0
Format : MPEG-4 Visual
Format profile : Advanced Simple@L5
Format settings, BVOP : 1
Format settings, QPel : No
Format settings, GMC : No warppoints
Format settings, Matrix : Custom
Codec ID : XVID
Codec ID/Hint : XviD
Duration : 44mn 25s
Bit rate : 1 533 Kbps
Width : 720 pixels
Height : 400 pixels
Display aspect ratio : 16:9
Frame rate : 25.000 fps
Color space : YUV
Chroma subsampling : 4:2:0
Bit depth : 8 bits
Scan type : Progressive
Compression mode : Lossy
Bits/(Pixel*Frame) : 0.213
Stream size : 487 MiB (88%)
Writing library : XviD 73
Audio
ID : 1
Format : AC-3
Format/Info : Audio Coding 3
Mode extension : CM (complete main)
Format settings, Endianness : Big
Codec ID : 2000
Duration : 44mn 25s
Bit rate mode : Constant
Bit rate : 192 Kbps
Channel(s) : 2 channels
Channel positions : Front: L R
Sampling rate : 48.0 KHz
Bit depth : 16 bits
Compression mode : Lossy
Stream size : 61.0 MiB (11%)
Alignment : Split accross interleaves
Interleave, duration : 40 ms (1.00 video frame)
Interleave, preload duratio : 500 ms

Скриншоты

[Профиль] [ЛС]
Показать сообщения:    

Текущее время: Сегодня 20:47

Часовой пояс: GMT



Вы не можете начинать темы
Вы не можете отвечать на сообщения
Вы не можете редактировать свои сообщения
Вы не можете удалять свои сообщения
Вы не можете голосовать в опросах
Вы не можете прикреплять файлы к сообщениям
Вы не можете скачивать файлы