Другой Мир / Underworld (Квадрология) (2003-2012) BDRip 1080p

 
Автор Сообщение

Russian Mafia ®

Пол:

Стаж: 1 год 8 месяцев

Сообщений: 4257



Награды: 10 (Подробнее)

Mega Seeder 2 (Количество: 1) Top Releaser 4 (Количество: 1) Top Releaser 3 (Количество: 1)
Торрент-статистика

Создавать темы 25-Авг-2015 07:21

[Цитировать]

Другой Мир / Underworld (2003) BDRip1080p от NoLimits-Team


Информация
Название: Другой Мир
Оригинальное название: Underworld
Год выхода: 2003
Жанр: Ужасы, боевик, триллер, фэнтези
Режиссер: Лен Уайзман
В ролях: Кейт Бекинсейл, Скотт Спидман, Майкл Шин, Шэйн Бролли, Билл Найи, Эрвин Ледер, София Майлс, Робби Ги, Вентворт Миллер, Кевин Гревье
О фильме
Столетиями властители царства мрака, вампиры и оборотни ведут беспощадную войну, невидимую человеческому взору. Бесстрашная Селина, воин-вампир, каждую ночь истребляет оборотней, влекомая неутолимой жаждой мести. Ее клан уверен, что вампирам удалось одержать верх над заклятыми врагами, но Селина подозревает, что у оборотней есть тайный план, сулящий гибель ее роду.
В центре этого плана — смертный парень Майкл. Его генетический код — ключ к созданию сверхсущества, которое будет бессмертно и неуязвимо. Теперь Селина должна любой ценой первой добраться до него, чтобы определить исход вечного противостояния двух могущественных рас, которых люди до сих пор считали мифом…
Дополнительно
Продолжительность: 02:01:10
Перевод: Профессиональный (полное дублирование)
Выпущено: США
Файл
Качество: BDRip 1080p (исходник Blu-ray Disc)
Видео: 1920x816, 4781 Kbps, 23.976 кадр/сек, AVC, x264, 2.35, 0.127 Бит/(Пиксели*Кадры)
Аудио: AC-3, 384 Кбит/сек, 6 канала(ов), 48,0 КГц
Чаптеры: Есть
Размер: 4.37 Гб


Скриншоты

MediaInfo

Format : Matroska
Format version : Version 2
File size : 4.37 GiB
Duration : 2h 1mn
Overall bit rate : 5 162 Kbps
Movie name : Другой.Мир.(2003).BDRip1080p.от.[mitrian].[NOLIMITS-TEAM]
Encoded date : UTC 2012-11-03 15:06:03
Writing application : mkvmerge v5.8.0 ('No Sleep / Pillow') built on Sep 2 2012 15:37:04
Writing library : libebml v1.2.3 + libmatroska v1.3.0
Video
ID : 1
Format : AVC
Format/Info : Advanced Video Codec
Format profile : High@L4.1
Format settings, CABAC : Yes
Format settings, ReFrames : 5 frames
Codec ID : V_MPEG4/ISO/AVC
Duration : 2h 1mn
Bit rate : 4 781 Kbps
Width : 1 920 pixels
Height : 816 pixels
Display aspect ratio : 2.35:1
Original display aspect ratio : 2.35:1
Frame rate : 23.976 fps
Color space : YUV
Chroma subsampling : 4:2:0
Bit depth : 8 bits
Scan type : Progressive
Bits/(Pixel*Frame) : 0.127
Stream size : 3.96 GiB (91%)
Title : Другой Мир (2003) BDRip1080p от NOLIMITS-TEAM
Writing library : x264 core 128 r2216 198a7ea
Encoding settings : cabac=1 / ref=5 / deblock=1:-3:-2 / analyse=0x3:0x113 / me=umh / subme=10 / psy=1 / psy_rd=1.00:0.10 / mixed_ref=1 / me_range=32 / chroma_me=1 / trellis=2 / 8x8dct=1 / cqm=0 / deadzone=21,11 / fast_pskip=0 / chroma_qp_offset=-3 / threads=6 / lookahead_threads=1 / sliced_threads=0 / slices=4 / nr=0 / decimate=0 / interlaced=0 / bluray_compat=0 / constrained_intra=0 / bframes=5 / b_pyramid=2 / b_adapt=2 / b_bias=0 / direct=3 / weightb=1 / open_gop=0 / weightp=2 / keyint=240 / keyint_min=24 / scenecut=40 / intra_refresh=0 / rc_lookahead=60 / rc=2pass / mbtree=1 / bitrate=4781 / ratetol=2.0 / qcomp=0.60 / qpmin=0 / qpmax=51 / qpstep=4 / cplxblur=20.0 / qblur=0.5 / ip_ratio=1.40 / aq=1:1.00
Language : English
Default : Yes
Forced : No
Audio
ID : 2
Format : AC-3
Format/Info : Audio Coding 3
Mode extension : CM (complete main)
Codec ID : A_AC3
Duration : 2h 1mn
Bit rate mode : Constant
Bit rate : 384 Kbps
Channel(s) : 6 channels
Channel positions : Front: L C R, Side: L R, LFE
Sampling rate : 48.0 KHz
Bit depth : 16 bits
Compression mode : Lossy
Stream size : 333 MiB (7%)
Default : Yes
Forced : No
Menu
00:00:00.000 : en:00:00:00.000
00:09:00.000 : en:00:09:00.000
00:19:00.000 : en:00:19:00.000
00:32:00.000 : en:00:32:00.000
00:39:00.000 : en:00:39:00.000
00:49:00.000 : en:00:49:00.000
00:59:00.000 : en:00:59:00.000
01:08:00.000 : en:01:08:00.000
01:18:00.000 : en:01:18:00.000
01:27:00.000 : en:01:27:00.000
01:33:00.000 : en:01:33:00.000
01:38:00.000 : en:01:38:00.000
01:42:00.000 : en:01:42:00.000
01:49:00.000 : en:01:49:00.000
01:55:00.000 : en:01:55:00.000
02:00:00.000 : en:02:00:00.000

Другой Мир 2 / Underworld: Evolution (2006) BDRip1080p от NoLimits-Team


Информация
Название: Другой Мир 2
Оригинальное название: Underworld: Evolution
Год выхода: 2006
Жанр: Ужасы, боевик, триллер, фэнтези
Режиссер: Лен Уайзман
В ролях: Кейт Бекинсейл, Скотт Спидман, Тони Карран, Шэйн Бролли, Дерек Джекоби, Билл Найи, Стивен Макинтош, Зита Герег, Брайан Стил, Скотт Элрой, София Майлс
О фильме
В зловещем ночном мире, скрытом от взора простых смертных, не утихает беспощадная борьба между двумя кланами властителей мрака – вампирами и оборотнями. Настала пора узнать об истоках вековой вражды, ставшей для вампира-воительницы Селин и Майкла, полуоборотня–получеловека, проклятьем и смыслом существования! Сражаясь с могущественными врагами из обоих кланов, древними магистрами смерти, они познают кровавую интригу и запретную любовь, чтобы в сумраке ночи раскрыть тайну своего происхождения и своего наследия. Их ждет великая битва, которая покончит с вечным противостоянием – последняя схватка ради окончания всех войн, в которой бессмертные должны понести кару и расплатиться за свои злодеяния...
Дополнительно
Продолжительность: 01:46:14
Перевод: Профессиональный (полное дублирование)
Выпущено: США
Файл
Качество: BDRip 1080p (исходник Blu-ray Disc)
Видео: 1920x800, 5501 Kbps, 23.976 кадр/сек, AVC, x264, 2.35, 0.149 Бит/(Пиксели*Кадры)
Аудио: AC-3, 384 Кбит/сек, 6 канала(ов), 48,0 КГц
Чаптеры: Есть
Размер: 4.37 Гб


Скриншоты

MediaInfo

Format : Matroska
Format version : Version 2
File size : 4.37 GiB
Duration : 1h 46mn
Overall bit rate : 5 877 Kbps
Movie name : Другой.Мир.2.(2006).BDRip1080p.от.[mitrian].[NOLIMITS-TEAM]
Encoded date : UTC 2012-11-03 16:08:50
Writing application : mkvmerge v5.8.0 ('No Sleep / Pillow') built on Sep 2 2012 15:37:04
Writing library : libebml v1.2.3 + libmatroska v1.3.0
Video
ID : 1
Format : AVC
Format/Info : Advanced Video Codec
Format profile : High@L4.1
Format settings, CABAC : Yes
Format settings, ReFrames : 5 frames
Codec ID : V_MPEG4/ISO/AVC
Duration : 1h 46mn
Bit rate : 5 501 Kbps
Width : 1 920 pixels
Height : 800 pixels
Display aspect ratio : 2.40:1
Frame rate : 23.976 fps
Color space : YUV
Chroma subsampling : 4:2:0
Bit depth : 8 bits
Scan type : Progressive
Bits/(Pixel*Frame) : 0.149
Stream size : 3.99 GiB (91%)
Title : Другой Мир 2 (2006) BDRip1080p от NOLIMITS-TEAM
Writing library : x264 core 128 r2216 198a7ea
Encoding settings : cabac=1 / ref=5 / deblock=1:0:0 / analyse=0x3:0x113 / me=umh / subme=10 / psy=1 / psy_rd=1.00:0.10 / mixed_ref=1 / me_range=32 / chroma_me=1 / trellis=2 / 8x8dct=1 / cqm=0 / deadzone=21,11 / fast_pskip=0 / chroma_qp_offset=-3 / threads=6 / lookahead_threads=1 / sliced_threads=0 / slices=4 / nr=0 / decimate=0 / interlaced=0 / bluray_compat=0 / constrained_intra=0 / bframes=5 / b_pyramid=2 / b_adapt=2 / b_bias=0 / direct=3 / weightb=1 / open_gop=0 / weightp=2 / keyint=240 / keyint_min=24 / scenecut=40 / intra_refresh=0 / rc_lookahead=60 / rc=2pass / mbtree=1 / bitrate=5501 / ratetol=2.0 / qcomp=0.60 / qpmin=0 / qpmax=51 / qpstep=4 / cplxblur=20.0 / qblur=0.5 / ip_ratio=1.40 / aq=1:1.00
Language : English
Default : Yes
Forced : No
Audio
ID : 2
Format : AC-3
Format/Info : Audio Coding 3
Mode extension : CM (complete main)
Codec ID : A_AC3
Duration : 1h 46mn
Bit rate mode : Constant
Bit rate : 384 Kbps
Channel(s) : 6 channels
Channel positions : Front: L C R, Side: L R, LFE
Sampling rate : 48.0 KHz
Bit depth : 16 bits
Compression mode : Lossy
Stream size : 292 MiB (7%)
Default : Yes
Forced : No
Menu
00:00:00.000 : en:00:00:00.000
00:09:00.000 : en:00:09:00.000
00:19:00.000 : en:00:19:00.000
00:32:00.000 : en:00:32:00.000
00:39:00.000 : en:00:39:00.000
00:49:00.000 : en:00:49:00.000
00:59:00.000 : en:00:59:00.000
01:08:00.000 : en:01:08:00.000
01:18:00.000 : en:01:18:00.000
01:27:00.000 : en:01:27:00.000
01:33:00.000 : en:01:33:00.000
01:38:00.000 : en:01:38:00.000
01:42:00.000 : en:01:42:00.000

Другой мир: Восстание ликанов / Underworld: Rise of the Lycans (2009) BDRip1080p от NoLimits-Team


Информация
Название: Другой мир: Восстание ликанов
Оригинальное название: Underworld: Rise of the Lycans
Год выхода: 2009
Жанр: Ужасы, боевик, триллер, фэнтези
Режиссер: Патрик Татопулос
В ролях: Майкл Шин, Билл Найи, Рона Митра, Стивен Макинтош, Кевин Гревье, Дэвид Эштон, Джеральдин Брофи, Лейтон Кардно, Алекс Кэрролл, Элизабет Хоторн, Джаред Тернер, Джейсон Худ, Mark Mitchinson, Таня Нолан, Крэйг Паркер, Тимоти Рэби, Ларри Рю, Питер Тейт, Оливия Тейлфорт, Элинор Уильямс, Эдвин Райт
О фильме
История, прослеживающая происхождение вековой кровной мести, между аристократическими вампирами, известными как Торговцы смертью и их рабами. Молодой ликан по имени Люциан — мощный лидер, который сплачивает оборотней, чтобы выступить против Виктора, жестокого короля вампиров, который поработил их. К Люциану присоединяется Соня, и помогает ему в его борьбе против смертоносной армии торговцев смертью и борьбе за свободу ликанов.
Дополнительно
Продолжительность: 01:32:28
Перевод: Профессиональный (полное дублирование)
Выпущено: США, Новая Зеландия
Файл
Качество: BDRip 1080p (исходник Blu-ray Disc)
Видео: 1920x800, 6385 Kbps, 23.976 кадр/сек, AVC, x264, 2.35, 0.173 Бит/(Пиксели*Кадры)
Аудио: AC-3, 384 Кбит/сек, 6 канала(ов), 48,0 КГц
Чаптеры: Есть
Размер: 4.37 Гб


Скриншоты

MediaInfo

Format : Matroska
Format version : Version 2
File size : 4.36 GiB
Duration : 1h 32mn
Overall bit rate : 6 756 Kbps
Movie name : Другой.Мир.3.Восстание.Ликанов.(2009).BDRip1080p.от.[mitrian].[NOLIMITS-TEAM]
Encoded date : UTC 2012-11-03 15:31:38
Writing application : mkvmerge v5.8.0 ('No Sleep / Pillow') built on Sep 2 2012 15:37:04
Writing library : libebml v1.2.3 + libmatroska v1.3.0
Video
ID : 1
Format : AVC
Format/Info : Advanced Video Codec
Format profile : High@L4.1
Format settings, CABAC : Yes
Format settings, ReFrames : 5 frames
Codec ID : V_MPEG4/ISO/AVC
Duration : 1h 32mn
Bit rate : 6 385 Kbps
Width : 1 920 pixels
Height : 800 pixels
Display aspect ratio : 2.40:1
Frame rate : 23.976 fps
Color space : YUV
Chroma subsampling : 4:2:0
Bit depth : 8 bits
Scan type : Progressive
Bits/(Pixel*Frame) : 0.173
Stream size : 4.03 GiB (92%)
Title : Другой Мир 3 Восстание Ликанов (2009) BDRip1080p от NOLIMITS-TEAM
Writing library : x264 core 128 r2216 198a7ea
Encoding settings : cabac=1 / ref=5 / deblock=1:0:0 / analyse=0x3:0x113 / me=umh / subme=10 / psy=1 / psy_rd=1.00:0.10 / mixed_ref=1 / me_range=32 / chroma_me=1 / trellis=2 / 8x8dct=1 / cqm=0 / deadzone=21,11 / fast_pskip=0 / chroma_qp_offset=-3 / threads=6 / lookahead_threads=1 / sliced_threads=0 / slices=4 / nr=0 / decimate=0 / interlaced=0 / bluray_compat=0 / constrained_intra=0 / bframes=5 / b_pyramid=2 / b_adapt=2 / b_bias=0 / direct=3 / weightb=1 / open_gop=0 / weightp=2 / keyint=240 / keyint_min=24 / scenecut=40 / intra_refresh=0 / rc_lookahead=60 / rc=2pass / mbtree=1 / bitrate=6385 / ratetol=2.0 / qcomp=0.60 / qpmin=0 / qpmax=51 / qpstep=4 / cplxblur=20.0 / qblur=0.5 / ip_ratio=1.40 / aq=1:1.00
Language : English
Default : Yes
Forced : No
Audio
ID : 2
Format : AC-3
Format/Info : Audio Coding 3
Mode extension : CM (complete main)
Codec ID : A_AC3
Duration : 1h 32mn
Bit rate mode : Constant
Bit rate : 384 Kbps
Channel(s) : 6 channels
Channel positions : Front: L C R, Side: L R, LFE
Sampling rate : 48.0 KHz
Bit depth : 16 bits
Compression mode : Lossy
Stream size : 254 MiB (6%)
Default : Yes
Forced : No
Menu
00:00:00.000 : en:00:00:00.000
00:09:00.000 : en:00:09:00.000
00:19:00.000 : en:00:19:00.000
00:32:00.000 : en:00:32:00.000
00:39:00.000 : en:00:39:00.000
00:49:00.000 : en:00:49:00.000
00:59:00.000 : en:00:59:00.000
01:08:00.000 : en:01:08:00.000
01:18:00.000 : en:01:18:00.000
01:27:00.000 : en:01:27:00.000

Другой мир: Пробуждение / Underworld: Awakening (2012) BDRip 1080p от NoLimits-Team


Информация
Название: Другой мир: Пробуждение
Оригинальное название: Underworld: Awakening
Жанр: ужасы, фэнтези, боевик
Год выпуска: 2012
Режиссер: Монс Морлинд / Mans Marlind, Бьёрн Стейн / Bjorn Stein
В ролях: Кейт Бекинсейл / Kate Beckinsale (Selene), Стивен Ри / Stephen Rea (Dr. Jacob Lane), Майкл Или / Michael Ealy (Detective Sebastian), Тео Джеймс / Theo James (David), Индия Айли / India Eisley (Eve), Чарльз Дэнс / Charles Dance (Thomas), Сандрин Холт / Sandrine Holt (Lida), Кристен Холден-Рид / Kristen Holden-Ried (Quint), Джейкоб Блэр / Jacob Blair (Officer Kolb), Адам Рейд / Adam Greydon Reid (Med Tech #1), Кэтлин Адамс / Catlin Adams (Olivia), Роберт Лоуренсон / Robert Lawrenson (Waterfront Cop)
Описание
Через 12 лет в состоянии, близком к коматозному, Селин узнает о существовании родной дочери Евы - гибрида вампира и ликана. И Селин необходимо помешать БиоКом создать суперликанов, которые убьют их всех.

Cэмпл
Дополнительно
Страна: США
Продолжительность: 01:28:33
Перевод: Профессиональный дублированный (Лицензия)
Файл
Качество: BDRip 1080p (исходник Blu-ray)
Видео: MKV, 6683 Кбит/с, 1920x800, 23.976 кадр/с, 2.40, 0.181 Bits/(Pixel*Frame)
Аудио: AC-3, 384 Кбит/сек, 6 канала(ов), 48,0 КГц
Размер: 4,37 Гб
Скриншоты

MI

Format : Matroska
Format version : Version 4 / Version 2
File size : 4.37 GiB
Duration : 1h 28mn
Overall bit rate : 7 067 Kbps
Movie name : Другой.Мир.4.Пробуждение.(2009).BDRip1080p.от.[mitrian].[NoLimits-Team]
Encoded date : UTC 2010-02-22 21:41:31
Writing application : mkvmerge v5.9.0 ('On The Loose') built on Dec 9 2012 15:37:01
Writing library : libebml v1.3.0 + libmatroska v1.4.0
Video
ID : 1
Format : AVC
Format/Info : Advanced Video Codec
Format profile : High@L4.1
Format settings, CABAC : Yes
Format settings, ReFrames : 5 frames
Codec ID : V_MPEG4/ISO/AVC
Duration : 1h 28mn
Bit rate : 6 683 Kbps
Width : 1 920 pixels
Height : 800 pixels
Display aspect ratio : 2.40:1
Frame rate mode : Constant
Frame rate : 23.976 fps
Color space : YUV
Chroma subsampling : 4:2:0
Bit depth : 8 bits
Scan type : Progressive
Bits/(Pixel*Frame) : 0.181
Stream size : 4.05 GiB (93%)
Title : Другой мир Пробуждение (2012) BDRip 1080p от NoLimits-Team
Writing library : x264 core 122 r2183 c522ad1
Encoding settings : cabac=1 / ref=5 / deblock=1:-3:-2 / analyse=0x3:0x133 / me=umh / subme=10 / psy=1 / psy_rd=1.00:0.10 / mixed_ref=1 / me_range=32 / chroma_me=1 / trellis=2 / 8x8dct=1 / cqm=0 / deadzone=21,11 / fast_pskip=0 / chroma_qp_offset=-3 / threads=6 / sliced_threads=0 / slices=4 / nr=0 / decimate=0 / interlaced=0 / bluray_compat=0 / constrained_intra=0 / bframes=5 / b_pyramid=2 / b_adapt=2 / b_bias=0 / direct=3 / weightb=1 / open_gop=0 / weightp=2 / keyint=240 / keyint_min=24 / scenecut=40 / intra_refresh=0 / rc_lookahead=60 / rc=2pass / mbtree=1 / bitrate=6683 / ratetol=2.0 / qcomp=0.60 / qpmin=0 / qpmax=51 / qpstep=4 / cplxblur=20.0 / qblur=0.5 / ip_ratio=1.40 / aq=1:1.00
Language : English
Default : Yes
Forced : No
Audio
ID : 2
Format : AC-3
Format/Info : Audio Coding 3
Mode extension : CM (complete main)
Format settings, Endianness : Big
Codec ID : A_AC3
Duration : 1h 28mn
Bit rate mode : Constant
Bit rate : 384 Kbps
Channel(s) : 6 channels
Channel positions : Front: L C R, Side: L R, LFE
Sampling rate : 48.0 KHz
Bit depth : 16 bits
Compression mode : Lossy
Stream size : 243 MiB (5%)
Title : Русский
Default : Yes
Forced : No
Menu
00:00:00.000 : en:00:00:00.000
00:04:39.278 : en:00:04:39.278
00:11:16.591 : en:00:11:16.591
00:19:32.546 : en:00:19:32.546
00:29:21.968 : en:00:29:21.968
00:44:05.391 : en:00:44:05.391
00:55:21.311 : en:00:55:21.311
01:03:41.211 : en:01:03:41.211
01:18:39.765 : en:01:18:39.765
01:25:45.683 : en:01:25:45.683
[Профиль] [ЛС]
Показать сообщения:    

Текущее время: Сегодня 02:31

Часовой пояс: GMT



Вы не можете начинать темы
Вы не можете отвечать на сообщения
Вы не можете редактировать свои сообщения
Вы не можете удалять свои сообщения
Вы не можете голосовать в опросах
Вы не можете прикреплять файлы к сообщениям
Вы не можете скачивать файлы