Другой майор Соколов [01-32 из 32] (2015) HDTV 1080i от MediaClub

 
Автор Сообщение

sergej644 ®

Пол:

Стаж: 4 года 11 месяцев

Сообщений: 6041

Откуда: Soviet Union



Награды: Нет

Торрент-статистика

Создавать темы 25-Дек-2015 22:01

[Цитировать]

Информация о фильме
Оригинальное название: Другой майор Соколов
Год выхода: 2015
Жанр: Криминал, боевик
Режиссер: Карен Захаров
В ролях: Вадим Андреев, Константин Соловьёв, Анастасия Панина, Александр Наумов, Филипп Бледный, Денис Варенов, Олег Клёнов, Андрей Ерофеев, Марина Волкова, Антон Степанов, Вероника Лысакова, Александра Артемьева, Алёна Чехова, Александр Сергеев, Юрий Маслак, Наталья Тищенко, Виктор Пилипко, Иван Непомнящий, Полина Кутихина, Евгений Венедиктов, Анатолий Завьялов, Виктория Адельфина, Евгений Кравченко
О фильме:
В центре нового сериала «Другой майор Соколов» – работа специальной службы – Управления собственной безопасности, которое расследует преступления, совершаемые работниками правоохранительных органов. Лучшие сотрудники управления – Влад Соколов, Андрей Гордеев, Марина Ветрова и Олег Ершов служат в группе под руководством полковника Ладыгина. Казалось бы, их служба не отличается от службы обычных полицейских: оперативная разработка, прослушка, слежка, опрос свидетелей, арест преступников…
Страна: Россия
Студия: Кинокомпания "Пирамида" по заказу НТВ
Продолжительность: 32 х ~ 00:45:00
Перевод: Не требуется
Файл
Кодек: MPEG-4 AVC
Качество: HDTV 1080i
Видео: 1920х1080 (16:9), 25 fps, AVC MPEG-4 (x264), High@L4.0 ~ 8500 kbps avg, 0.152 bit/pixel
Звук: 48 kHz, MP2, 2 ch, 192 kbps avg
Семпл

Скрытый текст

Общее
Идентификатор : 1 (0x1)
Полное имя : F:Фильмы торрентыDrugoy.mayor.Sokolov.2015.(1080i).MediaClubDrugoy.mayor.Sokolov.(01.seriya).2015.(1080i).MediaClub.ts
Формат : MPEG-TS
Размер файла : 2,70 Гбайт
Продолжительность : 45 м.
Режим общего битрейта : Переменный
Общий поток : 8478 Кбит/сек
Видео
Идентификатор : 901 (0x385)
Идентификатор меню : 90 (0x5A)
Формат : AVC
Формат/Информация : Advanced Video Codec
Профиль формата : Main@L4.0
Параметр CABAC формата : Да
Параметр ReFrames формата : 2 кадра
Идентификатор кодека : 27
Продолжительность : 45 м.
Битрейт : 7865 Кбит/сек
Ширина : 1920 пикселей
Высота : 1080 пикселей
Соотношение сторон : 16:9
Частота кадров : 25,000 кадров/сек
Цветовое пространство : YUV
Субдискретизация насыщенности : 4:2:0
Битовая глубина : 8 бит
Тип развёртки : MBAFF
Бит/(Пиксели*Кадры) : 0.152
Размер потока : 2,51 Гбайт (93%)
Основные цвета : BT.709
Характеристики трансфера : BT.709
Коэффициенты матрицы : BT.709
Аудио
Идентификатор : 902 (0x386)
Идентификатор меню : 90 (0x5A)
Формат : MPEG Audio
Версия формата : Version 1
Профиль формата : Layer 2
Идентификатор кодека : 3
Продолжительность : 45 м.
Вид битрейта : Постоянный
Битрейт : 192 Кбит/сек
Каналы : 2 канала
Частота : 48,0 КГц
Метод сжатия : С потерями
Размер потока : 62,7 Мбайт (2%)
Язык : Russian

Скриншоты

Релиз от:
Огромная благодарность Media-Art-Club за созданный постерa к раздаче
[Профиль] [ЛС]
Кто просматривает тему:

Форум Тема Автор Размер
Фильмы (HD Rips | 720p, 1080p) 15 дней в другом мире / 15 jours ailleurs (Дидье Бивель / Didier Bivel) [2013, Франция, драма, HDTV 1080i] MVO reversefile 5.84 GB
Фильмы (DVD 5/9) Другое лицо (Игорь Штернберг) [2008 г., Криминал / Драма, DVD5] TorrentFilm 3.9 GB
Фильмы 2009 года Другое полнолуние / Осеннее полнолуние / Another Harvest Moon (Грег Шварц / Greg Swartz) [2009, США, драма, DVB-AVC] MVO (Kino Polska) TorrentFilm 963 MB
Отечественные cериалы Другой майор Соколов [01-32 из 32] (2015) HDTVRip BOSS 17.18 GB
Фильмы (HD Rips | 720p, 1080p) Другой мир / Another World (2015) WEB-DL 720p | L2 достали все 3.15 GB
Фильмы 2015 года Другой мир / Another World (Эйтан Реувин) [2015, Ужасы, боевик, зомби] WEB-DLRip | L2 BOSS 1.46 GB
Фильмы 2010 года Другой мир / Un altro mondo (Сильвио Муччино / Silvio Muccino) [2010, Италия, драма, семейный, DVDRip] Sub Rus (Antonio) + Original Ita painkiller 1.37 GB
Фильмы 2010 года Другой мир / Un altro mondo (Сильвио Муччино / Silvio Muccino) [2010, Италия, Драма, семейный, приключение, DVDRip] VO (Cmert) + Original Ita painkiller 1.47 GB
Показать сообщения:    

Текущее время: Сегодня 08:33

Часовой пояс: GMT



Вы не можете начинать темы
Вы не можете отвечать на сообщения
Вы не можете редактировать свои сообщения
Вы не можете удалять свои сообщения
Вы не можете голосовать в опросах
Вы не можете прикреплять файлы к сообщениям
Вы не можете скачивать файлы