Другое полнолуние / Осеннее полнолуние / Another Harvest Moon (Грег Шварц / Greg Swartz) [2009, США, драма, DVB-AVC] MVO (Kino Polska)

 
Автор Сообщение

TorrentFilm ®

Пол:

Стаж: 2 года

Сообщений: 7741



Награды: Нет

Торрент-статистика

Создавать темы 01-Сен-2015 00:09

[Цитировать]

Другое полнолуние
Another Harvest Moon- Страна: США
Жанр: драма
Год выпуска: 2009
Продолжительность: 01:24:15Перевод: Профессиональный (многоголосый закадровый) по заказу Kino Polska на производственно-технической базе Студии "Акцент"
Cубтитры: нет
Режиссер: Грег Шварц / Greg Swartz
В ролях: Эрнест Боргнайн / Ernest Borgnine (Frank), Пайпер Лори / Piper Laurie (June), Энн Мира / Anne Meara (Ella), Дорис Робертс / Doris Roberts (Alice), Ричард Шифф / Richard Schiff (Jeffrey), Сибилл Шеперд / Cybill Shepherd (Vickie), Санкриш Бала / Sunkrish Bala (Paul), Амбер Бенсон / Amber Benson (Gretchen), Кэмерон Монахэн / Cameron Monaghan (Jack)
Описание: История нескольких обитателей дома престарелых и их домочадцев. Инвалид Фрэнк подумывает о самоубийстве; Джуна страдает прогрессирующим старческим слабоумием; Элис неизлечимо больна, но начинает учить испанский язык и в надежде разбогатеть продолжает покупать лотерейные билеты…
Доп. информация: Filmbox IPTV
Награды: 2 награды Rhode Island International Film Festival 2009 (Гран-при за лучший оригинальный саундтрек; приз зрительских симпатий).

Качество видео: DVB-AVC
Формат видео: MKV
Видео: AVC (H.264), 720x576@1024x576 (16:9), 25 fps, ~1438 kbps avg, 0.139 bit/pixel
Аудио: MPEG Audio 2, 2 ch, 48 kHz, ~128.00 kbps avg

MediaInfo

ОбщееУникальный идентификатор : 232568156345412122951877266587144210642 (0xAEF6FF65718E4F5CB5A9F2F1D4C8C8D2)Полное имя : F:\My Torrents 3\[apreder]Another_Harvest_Moon(2009)DVB.mkvФормат : MatroskaВерсия формата : Version 2Размер файла : 963 МбайтПродолжительность : 1 ч. 24 м.Общий поток : 1598 Кбит/секДата кодирования : UTC 2015-08-29 10:22:28Программа кодирования : mkvmerge v8.3.0 ('Over the Horizon') 64bitБиблиотека кодирования : libebml v1.3.1 + libmatroska v1.4.2Attachements : cover.jpg / cover_small.jpgTITLE : Another Harvest MoonIMDB : tt1129404DATE_RELEASED : 2010-10-06LAW_RATING : 12+GENRE : DramaACTOR : Ernest Borgnine, Piper Laurie, Anne Meara, Doris Roberts, Cybill ShepherdDIRECTOR : Greg SwartzKEYWORDS : torrentfilm.net
ВидеоИдентификатор : 1Формат : AVCФормат/Информация : Advanced Video CodecПрофиль формата : High@L3Параметр CABAC формата : ДаПараметр ReFrames формата : 3 кадраПараметр GOP формата : M=1, N=25Идентификатор кодека : V_MPEG4/ISO/AVCПродолжительность : 1 ч. 24 м.Битрейт : 1438 Кбит/секШирина : 720 пикселейВысота : 576 пикселейСоотношение сторон : 16:9Соотношение сторон в оригинале : 16:9Режим частоты кадров : ПостоянныйЧастота кадров : 25,000 кадров/секСтандарт вещания : PALЦветовое пространство : YUVСубдискретизация насыщенности : 4:2:0Битовая глубина : 8 битТип развёртки : ПрогрессивнаяБит/(Пиксели*Кадры) : 0.139Размер потока : 867 Мбайт (90%)Default : ДаForced : Нет
АудиоИдентификатор : 2Формат : MPEG AudioВерсия формата : Version 1Профиль формата : Layer 2Идентификатор кодека : A_MPEG/L2Идентификатор кодека/Подсказка : MP2Продолжительность : 1 ч. 24 м.Вид битрейта : ПостоянныйБитрейт : 128 Кбит/секКаналы : 2 каналаЧастота : 48,0 КГцМетод сжатия : С потерямиЗадержка видео : 4 мс.Размер потока : 77,1 Мбайт (8%)Язык : RussianDefault : ДаForced : Нет

Скриншот c названием фильма

Скриншоты


Резервные скриншоты


-
[Профиль] [ЛС]

Создавать темы 12-Июн-2016 08:13 (спустя 9 месяцев 11 дней)

Топик был перенесен из форума Фильмы 2011 года в форум Фильмы 2009 года
Russian Mafia
 
Показать сообщения:    

Текущее время: Сегодня 14:43

Часовой пояс: GMT



Вы не можете начинать темы
Вы не можете отвечать на сообщения
Вы не можете редактировать свои сообщения
Вы не можете удалять свои сообщения
Вы не можете голосовать в опросах
Вы не можете прикреплять файлы к сообщениям
Вы не можете скачивать файлы