Другая я / Another Me (2013) WEB-DL 720p от Сinemania | L

 
Автор Сообщение

sergej644 ®

Пол:

Стаж: 4 года 11 месяцев

Сообщений: 6038

Откуда: Soviet Union



Награды: Нет

Торрент-статистика

Создавать темы 11-Фев-2015 12:30

[Цитировать]

Информация о фильме
Название: Другая я
Оригинальное название: Another Me
Год выхода: 2013
Жанр: Триллер, детектив
Режиссер: Изабель Койшет
В ролях: Софи Тёрнер, Джонатан Риз Майерс, Клер Форлани, Грегг Салкин, Рис Иванс, Ивана Бакеро, Джеральдин Чаплин, Леонор Уотлинг, Сара Грегори, Мелани Уолтерс
О фильме:
Фэй - неуверенная в себе ученица старшей школы - живет тихой незаметной жизнью, пока неожиданно не получает роль в постановке школьного театра. Ей предстоит сыграть Леди Макбет – блистательную и драматическую личность шекспировской пьесы. Благодаря возросшей популярности жизнь Фэй быстро превращается в идеальную. Но она кажется мечтой подростка лишь на первый взгляд – Фэй подозревает, что где-то рядом с ней скрывается таинственный двойник, который намерен украсть не только ее жизнь, но вместе с ней и саму ее личность. Фильм «Другая я», известный под другим названием «Глаза панды», предлагает зрителю запутанную, полную мистерии и внутреннего драматизма историю, в которой каждую минуту стоит ожидать подвоха и неожиданных поворотов, а неожиданная развязка заставит зрителя заново переосмыслить происходящее эти два часа на экране.

Выпущено: Великобритания, Испания / Rainy Day Films, Tornasol Films
Продолжительность: 01:24:33
Перевод: Любительское (многоголосое) [ViruseProject]
Файл
Формат: MKV
Качество: WEB-DL 720p
Видео: MPEG-4 AVC, 3903 Кбит/с, 1280x694
Аудио: Русский, английский (AC3, 6 ch, 384 Кбит/с)
Субтитры: Русские, английские
Семпл

Media Info:


Общее
Уникальный идентификатор : 231226178369720473031946210774144115897 (0xADF48AC6129104D98F5F574CE63DE4B9)
Полное имя : F:Раздача HDAnother.Me.2013.WEB.DL.720p.CINEMANIA.mkv
Формат : Matroska
Версия формата : Version 4 / Version 2
Размер файла : 2,82 Гбайт
Продолжительность : 1 ч. 24 м.
Общий поток : 4766 Кбит/сек
Название фильма : Release Group CINEMANIA
Дата кодирования : UTC 2014-10-29 12:54:15
Программа кодирования : mkvmerge v7.3.0 ('Nouages') 64bit built on Oct 22 2014 18:53:34
Библиотека кодирования : libebml v1.3.0 + libmatroska v1.4.1
Видео
Идентификатор : 1
Формат : AVC
Формат/Информация : Advanced Video Codec
Профиль формата : High@L3.1
Параметр CABAC формата : Нет
Параметр ReFrames формата : 2 кадра
Идентификатор кодека : V_MPEG4/ISO/AVC
Продолжительность : 1 ч. 24 м.
Битрейт : 3903 Кбит/сек
Ширина : 1280 пикселей
Высота : 694 пикселя
Соотношение сторон : 1,85:1
Режим частоты кадров : Постоянный
Частота кадров : 23,976 кадра/сек
Цветовое пространство : YUV
Субдискретизация насыщенности : 4:2:0
Битовая глубина : 8 бит
Тип развёртки : Прогрессивная
Бит/(Пиксели*Кадры) : 0.183
Размер потока : 2,31 Гбайт (82%)
Заголовок : Release Group CINEMANIA
Язык : English
Default : Да
Forced : Нет
Основные цвета : BT.709
Характеристики трансфера : BT.709
Коэффициенты матрицы : BT.709
Аудио #1
Идентификатор : 2
Формат : AC-3
Формат/Информация : Audio Coding 3
Расширение режима : CM (complete main)
Параметр Endianness формата : Big
Идентификатор кодека : A_AC3
Продолжительность : 1 ч. 24 м.
Вид битрейта : Постоянный
Битрейт : 384 Кбит/сек
Каналы : 6 каналов
Расположение каналов : Front: L C R, Side: L R, LFE
Частота : 48,0 КГц
Битовая глубина : 16 бит
Метод сжатия : С потерями
Размер потока : 232 Мбайт (8%)
Заголовок : ViruseProject
Язык : Russian
Default : Да
Forced : Да
Аудио #2
Идентификатор : 3
Формат : AC-3
Формат/Информация : Audio Coding 3
Расширение режима : CM (complete main)
Параметр Endianness формата : Big
Идентификатор кодека : A_AC3
Продолжительность : 1 ч. 24 м.
Вид битрейта : Постоянный
Битрейт : 384 Кбит/сек
Каналы : 6 каналов
Расположение каналов : Front: L C R, Side: L R, LFE
Частота : 48,0 КГц
Битовая глубина : 16 бит
Метод сжатия : С потерями
Размер потока : 232 Мбайт (8%)
Язык : English
Default : Нет
Forced : Нет
Текст #1
Идентификатор : 4
Формат : UTF-8
Идентификатор кодека : S_TEXT/UTF8
Идентификатор кодека/Информация : UTF-8 Plain Text
Язык : Russian
Default : Да
Forced : Да
Текст #2
Идентификатор : 5
Формат : UTF-8
Идентификатор кодека : S_TEXT/UTF8
Идентификатор кодека/Информация : UTF-8 Plain Text
Заголовок : Т.Масаковская
Язык : Russian
Default : Нет
Forced : Нет
Текст #3
Идентификатор : 6
Формат : UTF-8
Идентификатор кодека : S_TEXT/UTF8
Идентификатор кодека/Информация : UTF-8 Plain Text
Язык : English
Default : Нет
Forced : Нет
Меню
00:00:00.000 : en:1
00:07:30.000 : en:2
00:14:37.000 : en:3
00:20:51.000 : en:4
00:26:46.000 : en:5
00:33:06.000 : en:6
00:39:37.000 : en:7
00:47:15.000 : en:8
00:55:24.000 : en:9
01:03:26.000 : en:10
01:10:18.000 : en:11
01:16:38.000 : en:12

Скриншоты

[Профиль] [ЛС]
Показать сообщения:    

Текущее время: Сегодня 20:02

Часовой пояс: GMT



Вы не можете начинать темы
Вы не можете отвечать на сообщения
Вы не можете редактировать свои сообщения
Вы не можете удалять свои сообщения
Вы не можете голосовать в опросах
Вы не можете прикреплять файлы к сообщениям
Вы не можете скачивать файлы