Другая Земля / Another Earth (2011) BDRip 1080p

 
Автор Сообщение

sergej644 ®

Пол:

Стаж: 4 года 11 месяцев

Сообщений: 6038

Откуда: Soviet Union



Награды: Нет

Торрент-статистика

Создавать темы 19-Июн-2015 23:29

[Цитировать]

Другая Земля / Another Earth
Русское название: Другая Земля
Оригинальное название: Another Earth
Год выпуска: 2011
Жанр: фантастика, драма, мелодрама
Выпущено: США
Режиссер: Майк Кэхилл
В ролях: Брит Марлинг , Уильям Мапотер , Робин Лорд Тейлор , Джордан Бэйкер , Флинт Биверэйг , Кумар Паллана , Мегган Леннон , Ай Диана , Дайан Цисла , Луис Вега , Мэттью-Ли Эрлбах , DJ Flava
Перевод: Профессиональный многоголосый [Лицензия]

Сюжет фильма:
Научно-фантастическая драма о трагическом пересечении жизней студентки и композитора в ночь открытия учёными идентичной Земле планеты в Солнечной системе.

Качество: BDRip 1080p
Формат: AVC (библиотека кодирования x.264)
Контейнер (Расширение): MKV
Видео: 1920x1036, 10766 Кбит/сек, 23,976 кадр/сек, 0,226 Бит/[Пиксели*Кадры]
Аудио №1: русский / AC3 / 5.1 / 48 kHz / 640 kbps / |Профессиональный многоголосый, переработанный R5|
Аудио №2: английский / AC3 / 5.1 / 48 kHz / 640 kbps /
Субтитры: русские (R5), русские (forced), русские (opel), английские
Навигация по главам(Чаптеры): есть
Продолжительность: 01:32:25
Видеоряд CHD

что значит переработанный R5

В данной раздаче AC3-энкод гибрида декодированной R5 (AC3 5.1 384 kbps) с декодированным DTSHDMA-оригиналом. Там где это было возможно, из центра R5 вырезаны реплики, не содержащие шумовых и музыкальных составляющих и микшированы с центром оригинала. Там, где это было невозможно или несущественно, остались врезки всех каналов исходной R5. Склейки R5 и оригинала сбалансированы по громкости, тылы R5 очищены от мерзкого высокочастотного шума. В результате ~2/3 всей дорожки - вставки оригинала. То есть практически весь привлекательный саундтрек имеет DTSHD-исходник. Наглядное соотношение R5 к оригиналу (левый канал, R5 вверху, оригинал внизу) :

by arkahan.

MediaInfo

Format : Matroska
Format version : Version 2
File size : 7.78 GiB
Duration : 1h 32mn
Overall bit rate : 12.0 Mbps
Movie name : Drugaja zemlja.(2011).BDRip.1080p.[denis100]
Encoded date : UTC 2015-06-14 08:59:53
Writing application : mkvmerge v5.8.0 ('No Sleep / Pillow') built on Sep 2 2012 15:37:04
Writing library : libebml v1.2.3 + libmatroska v1.3.0
Video
ID : 1
Format : AVC
Format/Info : Advanced Video Codec
Format profile : High@L4.1
Format settings, CABAC : Yes
Format settings, ReFrames : 4 frames
Codec ID : V_MPEG4/ISO/AVC
Duration : 1h 32mn
Bit rate : 10.8 Mbps
Width : 1 920 pixels
Height : 1 036 pixels
Display aspect ratio : 1.853
Frame rate : 23.976 fps
Color space : YUV
Chroma subsampling : 4:2:0
Bit depth : 8 bits
Scan type : Progressive
Bits/(Pixel*Frame) : 0.226
Stream size : 6.80 GiB (87%)
Title : Drugaja zemlja.(2011).BDRip.1080p.[denis100]
Writing library : x264 core 116 r2074 2641b9e
Encoding settings : cabac=1 / ref=4 / deblock=1:-3:-3 / analyse=0x3:0x113 / me=umh / subme=11 / psy=1 / psy_rd=1.10:0.15 / mixed_ref=1 / me_range=32 / chroma_me=1 / trellis=2 / 8x8dct=1 / cqm=2 / deadzone=21,11 / fast_pskip=0 / chroma_qp_offset=-2 / threads=12 / sliced_threads=0 / nr=0 / decimate=1 / interlaced=0 / bluray_compat=0 / constrained_intra=0 / bframes=6 / b_pyramid=2 / b_adapt=2 / b_bias=0 / direct=3 / weightb=1 / open_gop=0 / weightp=2 / keyint=250 / keyint_min=23 / scenecut=40 / intra_refresh=0 / rc_lookahead=60 / rc=2pass / mbtree=1 / bitrate=10766 / ratetol=1.0 / qcomp=0.60 / qpmin=1 / qpmax=63 / qpstep=4 / cplxblur=20.0 / qblur=0.5 / vbv_maxrate=40000 / vbv_bufsize=40000 / nal_hrd=none / ip_ratio=1.40 / aq=1:1.00
Language : English
Default : Yes
Forced : No
Audio #1
ID : 2
Format : AC-3
Format/Info : Audio Coding 3
Mode extension : CM (complete main)
Codec ID : A_AC3
Duration : 1h 32mn
Bit rate mode : Constant
Bit rate : 640 Kbps
Channel(s) : 6 channels
Channel positions : Front: L C R, Side: L R, LFE
Sampling rate : 48.0 KHz
Bit depth : 16 bits
Compression mode : Lossy
Stream size : 423 MiB (5%)
Title : MVO, переработанный R5
Language : Russian
Default : Yes
Forced : No
Audio #2
ID : 3
Format : AC-3
Format/Info : Audio Coding 3
Mode extension : CM (complete main)
Codec ID : A_AC3
Duration : 1h 32mn
Bit rate mode : Constant
Bit rate : 640 Kbps
Channel(s) : 6 channels
Channel positions : Front: L C R, Side: L R, LFE
Sampling rate : 48.0 KHz
Bit depth : 16 bits
Compression mode : Lossy
Stream size : 423 MiB (5%)
Language : English
Default : No
Forced : No
Text #1
ID : 4
Format : UTF-8
Codec ID : S_TEXT/UTF8
Codec ID/Info : UTF-8 Plain Text
Title : R5
Language : Russian
Default : No
Forced : No
Text #2
ID : 5
Format : UTF-8
Codec ID : S_TEXT/UTF8
Codec ID/Info : UTF-8 Plain Text
Title : forced
Language : Russian
Default : Yes
Forced : No
Text #3
ID : 6
Format : UTF-8
Codec ID : S_TEXT/UTF8
Codec ID/Info : UTF-8 Plain Text
Title : opel
Language : Russian
Default : No
Forced : No
Text #4
ID : 7
Format : UTF-8
Codec ID : S_TEXT/UTF8
Codec ID/Info : UTF-8 Plain Text
Language : English
Default : No
Forced : No
Menu
00:00:00.000 : en:00:00:00.000
00:05:58.316 : en:00:05:58.316
00:10:23.998 : en:00:10:23.998
00:13:57.295 : en:00:13:57.295
00:17:05.816 : en:00:17:05.816
00:20:18.259 : en:00:20:18.259
00:26:39.681 : en:00:26:39.681
00:32:01.002 : en:00:32:01.002
00:36:29.312 : en:00:36:29.312
00:43:56.050 : en:00:43:56.050
00:48:39.959 : en:00:48:39.959
00:51:41.348 : en:00:51:41.348
00:55:06.386 : en:00:55:06.386
01:02:32.332 : en:01:02:32.332
01:04:56.184 : en:01:04:56.184
01:09:24.952 : en:01:09:24.952
01:17:52.334 : en:01:17:52.334
01:20:50.345 : en:01:20:50.345
01:25:20.407 : en:01:25:20.407
01:28:04.571 : en:01:28:04.571

Скриншоты

[Профиль] [ЛС]
Показать сообщения:    

Текущее время: Сегодня 14:35

Часовой пояс: GMT



Вы не можете начинать темы
Вы не можете отвечать на сообщения
Вы не можете редактировать свои сообщения
Вы не можете удалять свои сообщения
Вы не можете голосовать в опросах
Вы не можете прикреплять файлы к сообщениям
Вы не можете скачивать файлы