Другая женщина / The Other Woman (Ник Кассаветис / Nick Cassavetes) [2014, Мелодрама, комедия, BDRip-AVC] Dub + Original (Eng) + Sub (rus., eng., ukr.)

 
Автор Сообщение

painkiller ®

Стаж: 2 года 3 месяца

Сообщений: 582



Награды: Нет

Торрент-статистика

Создавать темы 26-Авг-2014 20:21

[Цитировать]

Другая женщина / The Other Woman- Страна: США / 20th Century Fox Film Corporation, LBI Productions
Жанр: Мелодрама, комедия
Год выпуска: 2014
Продолжительность: 01:49:13
Перевод: Профессиональный (полное дублирование) [BD CEE]
Cубтитры: русские (Blu-Ray), украинские (Blu-Ray), английские (Full + SDH + SDH-Colored)
Формат субтитров: softsub (SRT)
Оригинальная аудиодорожка: нет-Режиссер: Ник Кассаветис / Nick Cassavetes
В ролях: Кэмерон Диаз, Лесли Манн, Кейт Аптон, Николай Костер-Вальдау, Дон Джонсон, Тейлор Кинни, Ники Минаж, Дэвид Торнтон, Виктор Круз, Оливия Калпо
Описание: Любовная связь с женатым мужчиной — это, конечно, не лучший вариант, но вполне допустимый. Гораздо хуже, если у него помимо тебя ещё несколько любовниц. Будучи не в силах смириться с таким положением дел, обманутая женщина жаждет крови и вынашивает план мести. Ради достижения своей цели она объединяется с женой изменника, и этот союз униженных и оскорблённых оказывается для казановы пострашнее атомной войны.-
Релиз от:
Автор рипа: potroks-Качество видео: BDRip-AVC [THE_OTHER_WOMAN_HDCLUB]
Формат видео: MKV
Видео: x.264, 960x400 (2,40:1), 23.976 fps, 1725 kbps, 0.187 bit/pixel
Аудио: 48 kHz, AC3 Dolby Digital, 2/0 (L,R) ch, 192.00 kbps

MediaInfo

Общее
Уникальный идентификатор : 195106924810891996804037092895043749217 (0x92C83A1523AB27B8AE173E72E8560561)
Полное имя : Drugaya.Zhencjina.2014.RUS.BDRip.x264.-HELLYWOOD.mkv
Формат : Matroska
Версия формата : Version 4 / Version 2
Размер файла : 1,47 Гбайт
Длительность : 1 ч. 49 м.
Общий поток : 1921 Кбит/сек
Название фильма : The Other Woman (2014) - HELLYWOOD
Дата кодирования : UTC 2014-08-22 13:48:52
Программа кодирования : mkvmerge v5.9.0 ('On The Loose') built on Dec 15 2012 16:39:58
Библиотека кодирования : libebml v1.3.0 + libmatroska v1.4.0
Видео
Идентификатор : 1
Формат : AVC
Формат/Информация : Advanced Video Кодек
Профиль формата : High@L4.1
Параметр CABAC формата : Да
Параметр ReFrames формата : 12 кадров
Идентификатор кодека : V_MPEG4/ISO/AVC
Длительность : 1 ч. 49 м.
Битрейт : 1725 Кбит/сек
Ширина : 960 пикселей
Высота : 400 пикселей
Соотношение сторон : 2,40:1
Режим частоты кадров : Постоянный
Частота кадров : 23,976 кадра/сек
Цветовое пространство : YUV
Субдискретизация насыщенности : 4:2:0
Битовая глубина : 8 бит
Тип развёртки : Прогрессивная
Бит/(Пиксели*Кадры) : 0.187
Размер потока : 1,29 Гбайт (88%)
Заголовок : potroks
Библиотека кодирования : x264 core 130 r2273 b3065e6
Настройки программы : cabac=1 / ref=12 / deblock=1:-2:-1 / analyse=0x3:0x133 / me=umh / subme=11 / psy=1 / psy_rd=1.00:0.04 / mixed_ref=1 / me_range=48 / chroma_me=1 / trellis=2 / 8x8dct=1 / cqm=0 / deadzone=21,11 / fast_pskip=0 / chroma_qp_offset=-3 / threads=9 / lookahead_threads=2 / sliced_threads=0 / nr=0 / decimate=0 / interlaced=0 / bluray_compat=0 / constrained_intra=0 / bframes=13 / b_pyramid=2 / b_adapt=2 / b_bias=0 / direct=3 / weightb=1 / open_gop=0 / weightp=2 / keyint=250 / keyint_min=23 / scenecut=40 / intra_refresh=0 / rc_lookahead=60 / rc=2pass / mbtree=0 / bitrate=1725 / ratetol=1.0 / qcomp=0.70 / qpmin=0 / qpmax=69 / qpstep=4 / cplxblur=20.0 / qblur=0.5 / vbv_maxrate=50000 / vbv_bufsize=62500 / nal_hrd=none / ip_ratio=1.35 / pb_ratio=1.25 / aq=1:0.80
Язык : English
Default : Да
Forced : Нет
Аудио
Идентификатор : 2
Формат : AC-3
Формат/Информация : Audio Coding 3
Расширение режима : CM (complete main)
Параметр Endianness формата : Big
Идентификатор кодека : A_AC3
Длительность : 1 ч. 49 м.
Вид битрейта : Постоянный
Битрейт : 192 Кбит/сек
Каналы : 2 канала
Расположение каналов : Front: L R
Частота : 48,0 КГц
Битовая глубина : 16 бит
Метод сжатия : С потерями
Размер потока : 150 Мбайт (10%)
Заголовок : Dub | DD 2.0 @ 192 kbps - Blu-Ray CEE
Язык : Russian
Default : Да
Forced : Нет
Текст #1
Идентификатор : 3
Формат : UTF-8
Идентификатор кодека : S_TEXT/UTF8
Идентификатор кодека/Информация : UTF-8 Plain Text
Заголовок : Blu-Ray
Язык : Russian
Default : Нет
Forced : Нет
Текст #2
Идентификатор : 4
Формат : UTF-8
Идентификатор кодека : S_TEXT/UTF8
Идентификатор кодека/Информация : UTF-8 Plain Text
Заголовок : Blu-Ray
Язык : Ukrainian
Default : Нет
Forced : Нет
Текст #3
Идентификатор : 5
Формат : UTF-8
Идентификатор кодека : S_TEXT/UTF8
Идентификатор кодека/Информация : UTF-8 Plain Text
Язык : English
Default : Нет
Forced : Нет
Текст #4
Идентификатор : 6
Формат : UTF-8
Идентификатор кодека : S_TEXT/UTF8
Идентификатор кодека/Информация : UTF-8 Plain Text
Заголовок : SDH
Язык : English
Default : Нет
Forced : Нет
Текст #5
Идентификатор : 7
Формат : UTF-8
Идентификатор кодека : S_TEXT/UTF8
Идентификатор кодека/Информация : UTF-8 Plain Text
Заголовок : SDH-Colored
Язык : English
Default : Нет
Forced : Нет
Меню
00:00:00.000 : en:(01)00:00:00:000
00:03:06.186 : en:(02)00:03:06:186
00:05:45.261 : en:(03)00:05:45:261
00:07:21.274 : en:(04)00:07:21:274
00:10:21.370 : en:(05)00:10:21:370
00:14:17.231 : en:(06)00:14:17:231
00:16:45.421 : en:(07)00:16:45:421
00:19:47.686 : en:(08)00:19:47:686
00:21:18.443 : en:(09)00:21:18:443
00:24:01.648 : en:(10)00:24:01:648
00:28:16.861 : en:(11)00:28:16:861
00:32:34.035 : en:(12)00:32:34:035
00:35:41.180 : en:(13)00:35:41:180
00:39:06.260 : en:(14)00:39:06:260
00:41:54.803 : en:(15)00:41:54:803
00:44:53.315 : en:(16)00:44:53:315
00:48:33.368 : en:(17)00:48:33:368
00:52:33.191 : en:(18)00:52:33:191
00:55:54.976 : en:(19)00:55:54:976
00:58:20.788 : en:(20)00:58:20:788
01:00:20.908 : en:(21)01:00:20:908
01:03:18.711 : en:(22)01:03:18:711
01:08:39.907 : en:(23)01:08:39:907
01:11:07.930 : en:(24)01:11:07:930
01:14:33.302 : en:(25)01:14:33:302
01:17:25.432 : en:(26)01:17:25:432
01:22:17.515 : en:(27)01:22:17:515
01:26:46.409 : en:(28)01:26:46:409
01:30:07.902 : en:(29)01:30:07:902
01:35:06.075 : en:(30)01:35:06:075
01:42:29.810 : en:(31)01:42:29:810
01:44:31.848 : en:(32)01:44:31:848
01:49:12.879 : en:(33)01:49:12:879

Скриншоты



[Профиль] [ЛС]
Показать сообщения:    

Текущее время: Сегодня 00:49

Часовой пояс: GMT



Вы не можете начинать темы
Вы не можете отвечать на сообщения
Вы не можете редактировать свои сообщения
Вы не можете удалять свои сообщения
Вы не можете голосовать в опросах
Вы не можете прикреплять файлы к сообщениям
Вы не можете скачивать файлы