Другая женщина / The Other Woman (2014) BDRip 720p | D | Лицензия

 
Автор Сообщение

Zithylord ®

Пол:

Стаж: 5 лет 10 месяцев

Сообщений: 114



Награды: 2 (Подробнее)

Mega Seeder 2 (Количество: 1) Mega Seeder 1 (Количество: 1)
Торрент-статистика

Создавать темы 20-Авг-2014 10:48

[Цитировать]

Другая женщинаThe Other Woman«Дружба 'против' - тоже дружба» Год выпуска: 2014
Страна: США
Жанр: мелодрама, комедия
Продолжительность: 01:49:13
Перевод: Профессиональный (дублированный)
Субтитры: Russian (UTF-8), Ukrainian (UTF-8), English (UTF-8)
Режиссер: Ник Кассаветис

В ролях: Кэмерон Диаз / Cameron Diaz (Carly Whitten), Лесли Манн / Leslie Mann (Kate King), Кейт Аптон / Kate Upton (Amber), Николай Костер-Вальдау / Nikolaj Coster-Waldau (Mark King), Дон Джонсон / Don Johnson (Frank), Тейлор Кинни / Taylor Kinney (Phil), Ники Минаж / Nicki Minaj (Lydia), Дэвид Торнтон / David Thornton (Nick)
Описание: Любовная связь с женатым мужчиной — это, конечно, не лучший вариант, но вполне допустимый. Гораздо хуже, если у него помимо тебя ещё несколько любовниц. Будучи не в силах смириться с таким положением дел, обманутая женщина жаждет крови и вынашивает план мести. Ради достижения своей цели она объединяется с женой изменника, и этот союз униженных и оскорблённых оказывается для казановы пострашнее атомной войны.
Рейтинг MPAA: Детям до 13 лет просмотр не желателен


Качество: BDRip 720p от SbR
Формат: MKV
Видео кодек: H.264 (AVC)
Аудио кодеk: DTS
Видео: 1280x534 (2.40:1), 23.976 fps, AVC, 5 636 Kbps
Аудио: Аудио #1: DTS, 755 Kbps, 48.0 KHz, 6 ch RUS Dub
Аудио #2: AC3, 448 Kbps, 48.0 KHz, 6 ch UKR Dub
Аудио #3: AC3, 640 Kbps, 48.0 KHz, 6 ch ENG

МедиаИнфо


x264 [info]: frame I:1496 Avg QP:16.11 size:134697
x264 [info]: frame P:30092 Avg QP:17.42 size: 50763
x264 [info]: frame B:125529 Avg QP:18.85 size: 23886
x264 [info]: consecutive B-frames: 1.3% 1.6% 3.7% 13.4% 17.1% 50.6% 7.0% 1.7% 1.3% 0.8% 0.7% 0.3% 0.6%
***************************************************
General
Unique ID : 231426461418655031293530885551051134761 (0xAE1B1D7D8C8EB1E2A1196888189E5729)
Complete name : The.Other.Woman.2014.720p.BluRay.Rus.Ukr.Eng.HDCLUB-SbR.mkv
Format : Matroska
Format version : Version 4 / Version 2
File size : 5.82 GiB
Duration : 1h 49mn
Overall bit rate : 7 631 Kbps
Encoded date : UTC 2014-08-20 05:13:32
Writing application : mkvmerge v6.9.1 ('Blue Panther') 64bit built on Apr 18 2014 18:23:38
Writing library : libebml v1.3.0 + libmatroska v1.4.1
Video
ID : 1
Format : AVC
Format/Info : Advanced Video Codec
Format profile : High@L4.1
Format settings, CABAC : Yes
Format settings, ReFrames : 10 frames
Codec ID : V_MPEG4/ISO/AVC
Duration : 1h 49mn
Bit rate : 5 636 Kbps
Width : 1 280 pixels
Height : 534 pixels
Display aspect ratio : 2.40:1
Frame rate mode : Constant
Frame rate : 23.976 fps
Color space : YUV
Chroma subsampling : 4:2:0
Bit depth : 8 bits
Scan type : Progressive
Bits/(Pixel*Frame) : 0.344
Stream size : 4.30 GiB (74%)
Writing library : x264 core 142 r2453kMod ea0ca51
Encoding settings : cabac=1 / ref=10 / deblock=1:-3:-3 / analyse=0x3:0x133 / me=esa / subme=10 / psy=1 / fade_compensate=0.00 / psy_rd=1.00:0.05 / mixed_ref=1 / me_range=24 / chroma_me=1 / trellis=2 / 8x8dct=1 / cqm=0 / deadzone=21,11 / fast_pskip=0 / chroma_qp_offset=-3 / threads=6 / lookahead_threads=1 / sliced_threads=0 / nr=0 / decimate=1 / interlaced=0 / bluray_compat=0 / constrained_intra=0 / fgo=0 / bframes=12 / b_pyramid=2 / b_adapt=2 / b_bias=0 / direct=3 / weightb=1 / open_gop=0 / weightp=2 / keyint=250 / keyint_min=23 / scenecut=40 / intra_refresh=0 / rc_lookahead=60 / rc=crf / mbtree=0 / crf=17.2500 / qcomp=0.70 / qpmin=0 / qpmax=69 / qpstep=4 / vbv_maxrate=62500 / vbv_bufsize=78125 / crf_max=0.0 / nal_hrd=none / filler=0 / ip_ratio=1.30 / pb_ratio=1.20 / aq=1:0.80
Language : English
Default : Yes
Forced : No
Matrix coefficients : BT.709
Audio #1
ID : 2
Format : DTS
Format/Info : Digital Theater Systems
Codec ID : A_DTS
Duration : 1h 49mn
Bit rate mode : Constant
Bit rate : 755 Kbps
Channel(s) : 6 channels
Channel positions : Front: L C R, Side: L R, LFE
Sampling rate : 48.0 KHz
Bit depth : 24 bits
Compression mode : Lossy
Stream size : 589 MiB (10%)
Title : Дубляж
Language : Russian
Default : Yes
Forced : No
Audio #2
ID : 3
Format : AC-3
Format/Info : Audio Coding 3
Mode extension : CM (complete main)
Format settings, Endianness : Big
Codec ID : A_AC3
Duration : 1h 49mn
Bit rate mode : Constant
Bit rate : 448 Kbps
Channel(s) : 6 channels
Channel positions : Front: L C R, Side: L R, LFE
Sampling rate : 48.0 KHz
Bit depth : 16 bits
Compression mode : Lossy
Stream size : 350 MiB (6%)
Title : Дубляж
Language : Ukrainian
Default : No
Forced : No
Audio #3
ID : 4
Format : AC-3
Format/Info : Audio Coding 3
Mode extension : CM (complete main)
Format settings, Endianness : Big
Codec ID : A_AC3
Duration : 1h 49mn
Bit rate mode : Constant
Bit rate : 640 Kbps
Channel(s) : 6 channels
Channel positions : Front: L C R, Side: L R, LFE
Sampling rate : 48.0 KHz
Bit depth : 16 bits
Compression mode : Lossy
Stream size : 500 MiB (8%)
Language : English
Default : No
Forced : No
Text #1
ID : 5
Format : UTF-8
Codec ID : S_TEXT/UTF8
Codec ID/Info : UTF-8 Plain Text
Language : Russian
Default : No
Forced : No
Text #2
ID : 6
Format : UTF-8
Codec ID : S_TEXT/UTF8
Codec ID/Info : UTF-8 Plain Text
Language : Ukrainian
Default : No
Forced : No
Text #3
ID : 7
Format : UTF-8
Codec ID : S_TEXT/UTF8
Codec ID/Info : UTF-8 Plain Text
Language : English
Default : No
Forced : No
Menu
00:00:00.000 : en:00:00:00.000
00:03:06.186 : en:00:03:06.186
00:05:45.262 : en:00:05:45.262
00:07:21.274 : en:00:07:21.274
00:10:21.371 : en:00:10:21.371
00:14:17.231 : en:00:14:17.231
00:16:45.421 : en:00:16:45.421
00:19:47.686 : en:00:19:47.686
00:21:18.444 : en:00:21:18.444
00:24:01.649 : en:00:24:01.649
00:28:16.862 : en:00:28:16.862
00:32:34.035 : en:00:32:34.035
00:35:41.181 : en:00:35:41.181
00:39:06.261 : en:00:39:06.261
00:41:54.804 : en:00:41:54.804
00:44:53.316 : en:00:44:53.316
00:48:33.369 : en:00:48:33.369
00:52:33.192 : en:00:52:33.192
00:55:54.977 : en:00:55:54.977
00:58:20.789 : en:00:58:20.789
01:00:20.909 : en:01:00:20.909
01:03:18.712 : en:01:03:18.712
01:08:39.907 : en:01:08:39.907
01:11:07.930 : en:01:11:07.930
01:14:33.302 : en:01:14:33.302
01:17:25.432 : en:01:17:25.432
01:22:17.516 : en:01:22:17.516
01:26:46.410 : en:01:26:46.410
01:30:07.902 : en:01:30:07.902
01:35:06.075 : en:01:35:06.075
01:42:29.810 : en:01:42:29.810
01:44:31.849 : en:01:44:31.849

Знаете ли Вы, что...

★ В одной из сцен муж Кэти разговаривает с любовницей по выключенному телефону.
Релиз от:
[Профиль] [ЛС]
Кто просматривает тему:

Форум Тема Автор Размер
S.T.A.L.K.E.R. S.T.A.L.K.E.R. - Dead Autumn 2 - Другая реальность [RePack] [RUS] (v 1.0004) (2007/2013) reversefile 3.35 GB
Фильмы (HD Rips | 720p, 1080p) Другая Бовари / Gemma Bovery (2014) BDRip 720p | Лицензия достали все 4.68 GB
Фильмы (HD Rips | 720p, 1080p) Другая Бовари / Gemma Bovery (2014) BDRip 720p | Чистый звук достали все 5.41 GB
Фильмы 2014 года Другая Бовари / Gemma Bovery (2014) HDRip | Лицензия BOSS 1.46 GB
Фильмы 2014 года Другая женщина / The Other Woman (Ник Кассаветис / Nick Cassavetes) [2014 г., США, мелодрама, комедия, BDRip-AVC] Dub + Original Eng + Sub (Rus, Ukr, Eng) painkiller 2.91 GB
Фильмы 2014 года Другая женщина / The Other Woman (Ник Кассаветис / Nick Cassavetes) [2014, Мелодрама, комедия, BDRip-AVC] Dub + Original (Eng) + Sub (rus., eng., ukr.) painkiller 1.47 GB
Фильмы 2014 года Другая женщина / The Other Woman (Ник Кассаветис / Nick Cassavetes) [2014, США, Комедия, мелодрама, BDRip-AVC] Dub (iTunes) + Sub Eng reversefile 1.45 GB
Фильмы 2014 года Другая женщина / The Other Woman (Ник Кассаветис / Nick Cassavetes) [2014, США, Комедия, мелодрама, HDRip] Dub (iTunes) reversefile 1.37 GB
Показать сообщения:    

Текущее время: Сегодня 20:05

Часовой пояс: GMT



Вы не можете начинать темы
Вы не можете отвечать на сообщения
Вы не можете редактировать свои сообщения
Вы не можете удалять свои сообщения
Вы не можете голосовать в опросах
Вы не можете прикреплять файлы к сообщениям
Вы не можете скачивать файлы