Другая женщина / The Other Woman (Ник Кассаветис / Nick Cassavetes) [2014, США, Комедия, мелодрама, BDRip-AVC] Dub (iTunes) + Sub Eng

 
Автор Сообщение

reversefile ®

Пол:

Стаж: 4 года 5 месяцев

Сообщений: 842

Откуда: ReverseFile.org



Награды: Нет

Торрент-статистика

Создавать темы 25-Июл-2014 01:16

[Цитировать]

Другая женщина / The Other Woman- Страна: США
Жанр: Комедия, мелодрама
Год выпуска: 2014
Продолжительность: 01:49:07
Перевод: Профессиональный (дублированный) iTunes
Cубтитры: английские
Оригинальная аудиодорожка: нет-Режиссер: Ник Кассаветис / Nick Cassavetes
В ролях: Кэмерон Диаз, Лесли Манн, Кейт Аптон, Николай Костер-Вальдау, Дон Джонсон, Тейлор Кинни, Ники Минаж, Дэвид Торнтон, Виктор Круз, Оливия Калпо-Описание: Любовная связь с женатым мужчиной — это, конечно, не лучший вариант, но вполне допустимый. Гораздо хуже, если у него помимо тебя ещё несколько любовниц. Будучи не в силах смириться с таким положением дел, обманутая женщина жаждет крови и вынашивает план мести. Ради достижения своей цели она объединяется с женой изменника, и этот союз униженных и оскорблённых оказывается для казановы пострашнее атомной войны.- -Качество видео: BDRip-AVC (The Other Woman 2014 1080p Blu-ray AVC DTS-HD MA 5.1-HDWinG)
Формат видео: MKV
Видео: x.264, 960x400, 1525 kbps, 23.976 fps
Аудио: AC3, 48000 Hz, 384 kbps, 5.1 channels
Формат субтитров: softsub (SRT)-

Скриншоты



Резервные скриншоты




-

MediaInfo / log

Format : Matroska
Format version : Version 4 / Version 2
File size : 1.45 GiB
Duration : 1h 49mn
Overall bit rate : 1 899 Kbps
Movie name : Другая женщина / The Other Woman (2014) BDRip-AVC by RG Torrents.ru
Encoded date : UTC 2014-07-18 20:21:48
Writing application : mkvmerge v7.0.0 ('Where We Going') 32bit built on Jun 9 2014 15:08:34
Writing library : libebml v1.3.0 + libmatroska v1.4.1
Cover : Yes
Video
ID : 1
Format : AVC
Format/Info : Advanced Video Codec
Format profile : High@L4.1
Format settings, CABAC : Yes
Format settings, ReFrames : 10 frames
Codec ID : V_MPEG4/ISO/AVC
Duration : 1h 49mn
Bit rate : 1 525 Kbps
Width : 960 pixels
Height : 400 pixels
Display aspect ratio : 2.40:1
Frame rate mode : Constant
Frame rate : 23.976 fps
Color space : YUV
Chroma subsampling : 4:2:0
Bit depth : 8 bits
Scan type : Progressive
Bits/(Pixel*Frame) : 0.166
Stream size : 1.13 GiB (78%)
Title : RG Torrents.ru
Writing library : x264 core 142 r2431 ac76440
Encoding settings : cabac=1 / ref=10 / deblock=1:-1:-1 / analyse=0x3:0x113 / me=umh / subme=10 / psy=1 / psy_rd=1.00:0.00 / mixed_ref=1 / me_range=32 / chroma_me=1 / trellis=2 / 8x8dct=1 / cqm=0 / deadzone=21,11 / fast_pskip=0 / chroma_qp_offset=-2 / threads=6 / lookahead_threads=1 / sliced_threads=0 / nr=0 / decimate=1 / interlaced=0 / bluray_compat=0 / constrained_intra=0 / bframes=10 / b_pyramid=2 / b_adapt=2 / b_bias=0 / direct=3 / weightb=1 / open_gop=0 / weightp=2 / keyint=240 / keyint_min=23 / scenecut=40 / intra_refresh=0 / rc_lookahead=60 / rc=2pass / mbtree=0 / bitrate=1525 / ratetol=1.0 / qcomp=0.70 / qpmin=0 / qpmax=69 / qpstep=4 / cplxblur=20.0 / qblur=0.5 / vbv_maxrate=10000 / vbv_bufsize=12000 / nal_hrd=none / filler=0 / ip_ratio=1.20 / pb_ratio=1.20 / aq=2:0.80
Language : English
Default : Yes
Forced : No
Audio
ID : 2
Format : AC-3
Format/Info : Audio Coding 3
Mode extension : CM (complete main)
Format settings, Endianness : Big
Codec ID : A_AC3
Duration : 1h 49mn
Bit rate mode : Constant
Bit rate : 384 Kbps
Channel(s) : 6 channels
Channel positions : Front: L C R, Side: L R, LFE
Sampling rate : 48.0 KHz
Bit depth : 16 bits
Compression mode : Lossy
Stream size : 300 MiB (20%)
Language : Russian
Default : Yes
Forced : No
Text
ID : 3
Format : UTF-8
Codec ID : S_TEXT/UTF8
Codec ID/Info : UTF-8 Plain Text
Language : English
Default : No
Forced : No
Menu
00:00:00.000 : en:Chapter 01
00:03:06.186 : en:Chapter 02
00:05:45.261 : en:Chapter 03
00:07:21.274 : en:Chapter 04
00:10:21.370 : en:Chapter 05
00:14:17.231 : en:Chapter 06
00:16:45.421 : en:Chapter 07
00:19:47.686 : en:Chapter 08
00:21:18.443 : en:Chapter 09
00:24:01.648 : en:Chapter 10
00:28:16.861 : en:Chapter 11
00:32:34.035 : en:Chapter 12
00:35:41.180 : en:Chapter 13
00:39:06.260 : en:Chapter 14
00:41:54.803 : en:Chapter 15
00:44:53.315 : en:Chapter 16
00:48:33.368 : en:Chapter 17
00:52:33.191 : en:Chapter 18
00:55:54.976 : en:Chapter 19
00:58:20.788 : en:Chapter 20
01:00:20.908 : en:Chapter 21
01:03:18.711 : en:Chapter 22
01:08:35.528 : en:Chapter 23
01:11:03.550 : en:Chapter 24
01:14:28.922 : en:Chapter 25
01:17:21.053 : en:Chapter 26
01:22:13.136 : en:Chapter 27
01:26:42.030 : en:Chapter 28
01:30:03.523 : en:Chapter 29
01:35:01.696 : en:Chapter 30
01:42:25.430 : en:Chapter 31
01:44:27.469 : en:Chapter 32
====================================================
x264 [info]: frame I:1572 Avg QP:17.86 size: 53495
x264 [info]: frame P:32951 Avg QP:19.50 size: 15783
x264 [info]: frame B:122458 Avg QP:20.94 size: 5173
x264 [info]: consecutive B-frames: 2.0% 1.7% 6.0% 23.5% 20.3% 33.5% 6.7% 2.5% 1.6% 1.0% 1.3%
-
[Профиль] [ЛС]
Показать сообщения:    

Текущее время: Сегодня 10:47

Часовой пояс: GMT



Вы не можете начинать темы
Вы не можете отвечать на сообщения
Вы не можете редактировать свои сообщения
Вы не можете удалять свои сообщения
Вы не можете голосовать в опросах
Вы не можете прикреплять файлы к сообщениям
Вы не можете скачивать файлы