Другая женщина / The Other Woman (Ник Кассаветис / Nick Cassavetes) [2014, США, Мелодрама, комедия, BDRip-AVC] Dub + Sub (Eng) + Original (Eng)

 
Автор Сообщение

reversefile ®

Пол:

Стаж: 4 года 5 месяцев

Сообщений: 842

Откуда: ReverseFile.org



Награды: Нет

Торрент-статистика

Создавать темы 25-Июл-2014 01:07

[Цитировать]

Другая женщина / The Other Woman-«Дружба 'против' - тоже дружба» -Страна: США
Студия: 20th Century Fox Film Corporation, LBI Productions
Жанр: Мелодрама, комедия
Год выпуска: 2014
Продолжительность: 01:49:07
Перевод: Профессиональный (дублированный) | iTunes |
Cубтитры: английские
Оригинальная аудиодорожка: английская-Режиссер: Ник Кассаветис / Nick Cassavetes-В ролях: Кэмерон Диаз, Лесли Манн, Кейт Аптон, Николай Костер-Валдау, Дон Джонсон, Тейлор Кинни, Ники Минаж, Дэвид Торнтон, Виктор Круз, Оливия Калпо...-Описание: Любовная связь с женатым мужчиной — это, конечно, не лучший вариант, но вполне допустимый. Гораздо хуже, если у него помимо тебя ещё несколько любовниц. Будучи не в силах смириться с таким положением дел, обманутая женщина жаждет крови и вынашивает план мести. Ради достижения своей цели она объединяется с женой изменника, и этот союз униженных и оскорблённых оказывается для казановы пострашнее атомной войны...-Автор рипа: odessit-v- -Качество видео: BDRip-AVC|The.Other.Woman.2014.1080p.BluRay.AVC.DTS-HD.MA.5.1-HDAccess|
Формат видео: MKV
Видео: AVC, 2092 Кбит/с, 1024x426, 23.976 кадр/с, 0,200 bit/pixel
Аудио #1: 48 kHz, AC3 Dolby Digital, 3/2 (L,C,R,l,r) + LFE ch, 384.00 kbps| iTunes |
Аудио #2: 48 kHz, AC3 Dolby Digital, 3/2 (L,C,R,l,r) + LFE ch, 384.00 kbps| Оригинал |-Дополнительно: Сохранены оригинальные чаптеры (главы) как на Blu-ray
-

Дополнительно о фильме:

Производство, студия дубляжа, прокат:

MediaInfo

General
Unique ID : 246252854416340719308716673212774795509 (0xB942931A5EC04333A247B29B672AC8F5)
Complete name : D:\The.Other.Woman.2014.BDRip_AVC.mkv
Format : Matroska
Format version : Version 4 / Version 2
File size : 2.18 GiB
Duration : 1h 49mn
Overall bit rate : 2 862 Kbps
Video
ID : 1
Format : AVC
Format/Info : Advanced Video Codec
Format profile : High@L4.1
Format settings, CABAC : Yes
Format settings, ReFrames : 10 frames
Codec ID : V_MPEG4/ISO/AVC
Duration : 1h 49mn
Bit rate : 2 092 Kbps
Width : 1 024 pixels
Height : 426 pixels
Display aspect ratio : 2.40:1
Frame rate mode : Constant
Frame rate : 23.976 fps
Color space : YUV
Chroma subsampling : 4:2:0
Bit depth : 8 bits
Scan type : Progressive
Bits/(Pixel*Frame) : 0.200
Stream size : 1.55 GiB (71%)
Writing library : x264 core 142 r2431+42 c69a006 tMod [8-bit@all X86_64]
Encoding settings : cabac=1 / ref=10 / deblock=1:-2:-2 / analyse=0x3:0x113 / me=esa / subme=11 / psy=1 / fade_compensate=0.00 / psy_rd=1.00:0.20 / mixed_ref=1 / me_range=32 / chroma_me=1 / trellis=2 / 8x8dct=1 / cqm=0 / deadzone=21,11 / fast_pskip=0 / chroma_qp_offset=-3 / threads=6 / lookahead_threads=1 / sliced_threads=0 / nr=0 / decimate=0 / interlaced=0 / bluray_compat=0 / constrained_intra=0 / fgo=0 / bframes=10 / b_pyramid=2 / b_adapt=2 / b_bias=0 / direct=3 / weightb=1 / open_gop=0 / weightp=2 / keyint=240 / keyint_min=23 / scenecut=40 / intra_refresh=0 / rc_lookahead=60 / rc=2pass / mbtree=0 / bitrate=2092 / ratetol=1.0 / qcomp=0.70 / qpmin=0:0:0 / qpmax=69:69:69 / qpstep=4 / cplxblur=20.0 / qblur=0.5 / vbv_maxrate=62500 / vbv_bufsize=78125 / nal_hrd=none / filler=0 / ip_ratio=1.40 / pb_ratio=1.30 / aq=1:0.90 / aq-sensitivity=10.00 / aq-factor=1.00:1.00:1.00 / aq2=0 / aq3=0
Language : English
Default : Yes
Forced : No
Audio #1
ID : 2
Format : AC-3
Format/Info : Audio Coding 3
Mode extension : CM (complete main)
Format settings, Endianness : Big
Codec ID : A_AC3
Duration : 1h 49mn
Bit rate mode : Constant
Bit rate : 384 Kbps
Channel(s) : 6 channels
Channel positions : Front: L C R, Side: L R, LFE
Sampling rate : 48.0 KHz
Bit depth : 16 bits
Compression mode : Lossy
Stream size : 300 MiB (13%)
Title : iTunes
Language : Russian
Default : Yes
Forced : No
Audio #2
ID : 3
Format : AC-3
Format/Info : Audio Coding 3
Mode extension : CM (complete main)
Format settings, Endianness : Big
Codec ID : A_AC3
Duration : 1h 49mn
Bit rate mode : Constant
Bit rate : 384 Kbps
Channel(s) : 6 channels
Channel positions : Front: L C R, Side: L R, LFE
Sampling rate : 48.0 KHz
Bit depth : 16 bits
Compression mode : Lossy
Stream size : 300 MiB (13%)
Language : English
Default : No
Forced : No
Text
ID : 4
Format : UTF-8
Codec ID : S_TEXT/UTF8
Codec ID/Info : UTF-8 Plain Text
Title : SDH
Language : English
Default : No
Forced : No
Menu
00:00:00.000 : :Chapter 01
00:03:06.186 : :Chapter 03
00:05:45.261 : :Chapter 05
00:07:21.274 : :Chapter 07
00:10:21.370 : :Chapter 09
00:14:17.231 : :Chapter 11
00:16:45.421 : :Chapter 13
00:19:47.686 : :Chapter 15
00:21:18.443 : :Chapter 17
00:24:01.648 : :Chapter 19
00:28:16.861 : :Chapter 21
00:32:34.035 : :Chapter 23
00:35:41.180 : :Chapter 25
00:39:06.260 : :Chapter 27
00:41:54.803 : :Chapter 29
00:44:53.315 : :Chapter 31
00:48:33.368 : :Chapter 33
00:52:33.191 : :Chapter 35
00:55:54.976 : :Chapter 37
00:58:20.788 : :Chapter 39
01:00:20.908 : :Chapter 41
01:03:18.711 : :Chapter 43
01:08:35.528 : :Chapter 45
01:11:03.550 : :Chapter 47
01:14:28.922 : :Chapter 49
01:17:21.053 : :Chapter 51
01:22:13.136 : :Chapter 53
01:26:42.030 : :Chapter 55
01:30:03.523 : :Chapter 57
01:35:01.696 : :Chapter 59
01:42:25.430 : :Chapter 61
01:44:27.469 : :Chapter 63
01:49:07.165 : :Chapter 64

Скриншот c названием фильма

Скриншоты

[Профиль] [ЛС]
Показать сообщения:    

Текущее время: Сегодня 02:30

Часовой пояс: GMT



Вы не можете начинать темы
Вы не можете отвечать на сообщения
Вы не можете редактировать свои сообщения
Вы не можете удалять свои сообщения
Вы не можете голосовать в опросах
Вы не можете прикреплять файлы к сообщениям
Вы не можете скачивать файлы